Ссылка на приватное зеркало нашего сайта всего за 1$. Внимание количество ограничено!!!

2 сезон

iTunes

1 сезон

1

iTunes

iTunes

iTunes

1 сезон

RePack

30

ИГРА 18+

pack

ВАЖНО

!!Акция!!

Alien_RageХит недели

RePack

MK11
pack

Забери бонус

RePack

jed

!!Акция!!

Alien_Rage

RePack

fifa19

RePack

Assassins Creed: Odyssey

RePack

NEED FOR SPEED™ PAYBACK

4 сезон

9 сезон

Бесстыжие 9 сезон

Все сериалы

все сериалы на PB.wtf

RePack

FAR CRY 5
  

Спасская / Сезон: 1 / Серии: 1-16 из 16 (Владимир Шевельков) [2020, Детектив, криминал, SATRip] pb.wtf

Спасская через торрент pb.wtf

Раздают: 3 [ 20 KB/s ] Качают: 1 [ 0 KB/s ]
Размер: 9.38 GB | Добавлен: 19 д. назад | Торрент скачан:52 раза
Скачать  

29-09-2020 15:36 Спасская Скачать торрент  

Спасская
Год выпуска: 2020
Страна: Россия
Студия: Жар-Птица
Жанр: Детектив, криминал
Продолжительность: ~ 00:51:26
Перевод: Не требуется
Субтитры: отсутствуют

Режиссер: Владимир Шевельков



В ролях: Карина Андоленко, Илья Носков, Роман Маякин, Лариса Удовиченко, Михаил Жигалов, Владимир Шевельков, Игорь Огурцов, Ольга Чудакова, Татьяна Струженкова, Виталий Коваленко, Алика Смехова, Евгений Сидихин, Артём Осипов, Ольга Тумайкина, Елена Захарова, Алла Юганова, Дмитрий Ульянов, Сергей Комаров (II), Татьяна Косач-Брындина, Юлия Беляева, Роман Петров, Марина Мартис, Алексей Коряков, Женя Евстигнеева (II), Веста Буркот, Андрей Козлов, Александр Городиский

Описание: Анна Спасская - следователь уголовного розыска Сочи, блондинка с острым умом и сильным характером. Принципиальна, не боится показаться занудой, не робеет перед начальством, умеет расколоть преступника и приструнить подчиненных. Главное – в любом запутанном деле находит неочевидные версии и замечает скрытые детали. Как профессионалу ей цены нет. Проницательность Спасская унаследовала от бабушки Инессы Аркадьевны. И в личной жизни у Анны, на первый взгляд, все прекрасно: состоятельный супруг носит кофе в постель и умоляет уйти с опасной работы.

Качество: SATRip
Формат: AVI

Видео: XviD, ~ 1500 Кбит/с, 720x400
Аудио: MP3, 2 ch, 192 Кбит/с
скриншот  скриншот  скриншот  скриншот  

Общее
Полное имя : C:\Spasskaya.2020.XviD.SATRip.25Kuzmich\Spasskaya.e01.WEB-DLRip.25Kuzmich.avi
Формат : AVI
Формат/Информация : Audio Video Interleave
Размер файла : 600 Мбайт
Продолжительность : 51 м. 16 с.
Общий поток : 1636 Кбит/сек
Программа кодирования : VirtualDubMod 1.5.10.3 | www.virtualdub-fr.org || (build 2550/release)
Библиотека кодирования : VirtualDubMod build 2550/release

Видео
Идентификатор : 0
Формат : MPEG-4 Visual
Профиль формата : Advanced Simple@L5
Настройки формата : BVOP1
Параметр BVOP формата : 1
Параметр QPel формата : Нет
Параметр GMC формата : Без точки перехода
Параметр матрицы формата : Default (MPEG)
Идентификатор кодека : XVID
Идентификатор кодека/Подсказка : XviD
Продолжительность : 51 м. 16 с.
Битрейт : 1471 Кбит/сек
Ширина : 720 пикселей
Высота : 400 пикселей
Соотношение сторон : 16:9
Частота кадров : 25,000 кадров/сек
Цветовое пространство : YUV
Субдискретизация насыщенности : 4:2:0
Битовая глубина : 8 бит
Тип развёртки : Прогрессивная
Метод сжатия : С потерями
Бит/(Пиксели*Кадры) : 0.190
Размер потока : 503 Мбайт (84%)
Библиотека кодирования : XviD 73

Аудио
Идентификатор : 1
Формат : MPEG Audio
Версия формата : Version 1
Профиль формата : Layer 3
Настройки формата : Joint stereo / MS Stereo
Идентификатор кодека : 55
Идентификатор кодека/Подсказка : MP3
Продолжительность : 51 м. 16 с.
Вид битрейта : Постоянный
Битрейт : 192 Кбит/сек
Каналы : 2 канала
Частота : 48,0 КГц
Частота кадров : 41,667 кадра/сек (1152 SPF)
Метод сжатия : С потерями
Размер потока : 70,4 Мбайт (12%)
Выравнивание : Соединение по промежуткам
Библиотека кодирования : LAME3.99r
Настройки программы : -m j -V 4 -q 2 -lowpass 18.6 -b 192

Когда раздача ведётся путём добавления новых серий, при каждом добавлении создётся новый торрент. Чтобы начать докачку новой серии, пользователям необходимо сделать следующее:
(1) остановить скачивание,
(2) удалить старый торрент у себя из клиента (старые серии удалять не надо),
(3) скачать новый торрент и запустить его у себя в клиенте вместо старого, при этом указать клиенту путь в старую папку, куда и должно происходить скачивание новых серий.
Ваш клиент при этом должен произвести хеширование (проверку) старой папки (если не производит сам - помогите ему сделать это), и будет докачивать только те серии, которых у вас ещё нет. Старые серии при этом не удаляются, а продолжают раздаваться!
Eсли вы уже удалили старые серии, то предотвратить повторную закачку старых серий можно, отжав галочку в соответсвующих местах при запуске нового торрента. По возможности, желательно не удалять старые серии как можно дольше, чтобы релизёр не столько продолжал раздавать старые серии, а смог сконцентрироваться на новых.

pb.wtf



Скачать Спасская через торрент https://i111.fastpic.ru/big/2020/0929/b2/00ca328cd4f790f80d7f496fba6f5fb2.jpg Скачать фильм Спасская через торрент бесплантно в хорошем качестве Описание: Анна Спасская - следователь уголовного розыска Сочи, блондинка с острым умом и сильным характером. Принципиальна, не боится ... 10 10 11
Торрент: Зарегистрирован [2020-10-08 22:45] · скачан: 52 раз
Статус: √ проверено
Размер: 9.38 GB
Как cкачать? Как скачать Спасская через торрент | qTorrent

% Раздел Тема Автор DL S | L
Наши сериалы [ 10.31 GB ] Спасская / Сезон: 1 / Серии: 1-16 из 16 [2020 HDTVRip] bober100 Скачать
4 | 0
Наши сериалы [ 29.96 GB ] Спасская / Сезон: 1 / Серии: 1-16 из 16 [2020 WEB-DL 1080p] sokol_ok Скачать
34 | 17
Наши сериалы [ 21.15 GB ] Спасская / Сезон: 1 / Серии: 1-16 из 16 [2020 HDTVRip 720p] bober100 Скачать
1 | 1
Наши сериалы [ 43.82 GB ] Спасская / Сезон: 1 / Серии: 1-16 из 16 [2020 HDTV 1080i] bober100 Скачать
2 | 0
Наши сериалы [ 12.56 GB ] Спасская / Сезон: 1 / Серии: 1-16 из 16 [2020 HDTVRip-AVC] bober100 Скачать
3 | 1

28-11-2019 20:33  

Отключить всю рекламу на сайте

    Дорогой пользователь! Огромная просьба, поблагодарите релизера, оцените раздачу и оставьте свои комментарий, если Вы скачали Спасская через торрент бесплатно! Внесите свою лепту в развитие PiratBit!
    Комментировать посты могут только пользователи прошедшие не сложную регистрацию
    Показать сообщения:    

    Спасская через торрент
    Скачать бесплатно Спасская
    Спасская скачать торрент
    Спасская смотреть онлайн
    Cкачать фильм Спасская бесплатно
    Спасская скачать торрент в хорошем качестве
    Спасская смотреть онлайн бесплатно в хорошем качестве


    Вы не можете начинать темы
    Вы не можете отвечать на сообщения
    Вы не можете редактировать свои сообщения
    Вы не можете удалять свои сообщения
    Вы не можете голосовать в опросах
    Вы не можете прикреплять файлы к сообщениям
    Вы можете скачивать файлы