Ссылка на приватное зеркало нашего сайта всего за 1$. Внимание количество ограничено!!!

2 сезон

iTunes

1 сезон

1

2 сезон

2 сезон

iTunes

1 сезон

RePack

30

Новинка

ВАЖНО

ИГРА 18+

pack

RePack

MK11
pack

Забери бонус

RePack

jed

!!Акция!!

Alien_Rage

RePack

fifa19

RePack

Assassins Creed: Odyssey

RePack

NEED FOR SPEED™ PAYBACK

4 сезон

9 сезон

Бесстыжие 9 сезон

Все сериалы

все сериалы на PB.wtf

RePack

FAR CRY 5
  

Побег из Претории / Escape from Pretoria (Фрэнсис Аннан) [2020, Триллер, BD Remux 1080p] DUB [iTunes] +MVO [HDrezka Studio] pb.wtf

Побег из Претории через торрент pb.wtf

Раздают: 1 [ 0 KB/s ] Качают: 1 [ 0 KB/s ]
Размер: 22.63 GB | Добавлен: 1 мес. 23 д. назад | Торрент скачан:58 раз
Скачать  

30-09-2020 19:23 Побег из Претории Скачать торрент  

Побег из Претории | Escape from Pretoria
Год выпуска: 2020
Страна: Великобритания, Австралия
Студия: Arclight Films, Spier Films, Premiere Picture
Жанр: Триллер
Продолжительность: 01:46:08
Перевод:
#1: Профессиональный многоголосый | iTunes
#2: Профессиональный (многоголосый) | HDrezka Studio
Субтитры: Русские (Forced, full [Enigma]), Английские

Режиссер: Фрэнсис Аннан

rating

В ролях: Дэниэл Рэдклифф, Иэн Харт, Даниэль Уэббер, Нэйтан Пейдж, Стивен Хантер, Марк Леонард Винтер, Ратидзо Мамбо, Жанетт Кронин, Дэвид Уилсон, Адам Овадия

Описание: Двое борцов за свободу отбывают срок в одной из самых строгих тюрем мира - в «Претории». Вместе с другими узниками они планируют дерзкий и опасный побег. Но придумать план - это только первый шаг. Шаг второй - реализация плана.

Качество: BD Remux 1080p
Формат: MKV

Видео: MPEG-4 AVC, 1920x1080, 27.9 Mbit/s, 23.976 fps
Аудио #01: 48 kHz, AC3, 5.1, 384 Kbps | iTunes | RUS |
Аудио #02: 48 kHz, AC3, 5.1, 448 Kbps | HDRezka Studio | RUS |
Аудио #03: 48 kHz, DTS-HD MA, 5.1, 1787 Kbps | Оригинал | FRE |
скриншот  скриншот  скриншот  скриншот  скриншот  

General
Unique ID : 181689791280580384159041781840791940527 (0x88B02E5381163A8C5267BAC40D932DAF)
Complete name : D:Video1111Escape.from.Pretoria.2020.BDREMUX.1080p.seleZen.mkv
Format : Matroska
Format version : Version 4
File size : 22.6 GiB
Duration : 1 h 45 min
Overall bit rate mode : Variable
Overall bit rate : 30.6 Mb/s
Movie name : Escape from Pretoria 2020 from селезень
Encoded date : UTC 2020-09-30 19:38:33
Writing application : mkvmerge v40.0.0 ('Old Town Road + Pony') 64-bit
Writing library : libebml v1.3.9 + libmatroska v1.5.2

Video
ID : 1
Format : AVC
Format/Info : Advanced Video Codec
Format profile : High@L4.1
Format settings : CABAC / 4 Ref Frames
Format settings, CABAC : Yes
Format settings, Reference : 4 frames
Format settings, GOP : M=3, N=24
Codec ID : V_MPEG4/ISO/AVC
Duration : 1 h 45 min
Bit rate mode : Variable
Bit rate : 27.9 Mb/s
Maximum bit rate : 35.0 Mb/s
Width : 1 920 pixels
Height : 1 080 pixels
Display aspect ratio : 16:9
Frame rate mode : Constant
Frame rate : 23.976 (24000/1001) FPS
Standard : NTSC
Color space : YUV
Chroma subsampling : 4:2:0
Bit depth : 8 bits
Scan type : Progressive
Bits/(Pixel*Frame) : 0.562
Stream size : 20.7 GiB (91%)
Language : English
Default : Yes
Forced : No
Color range : Limited
Color primaries : BT.709
Transfer characteristics : BT.709
Matrix coefficients : BT.709

Audio #1
ID : 2
Format : AC-3
Format/Info : Audio Coding 3
Commercial name : Dolby Digital
Codec ID : A_AC3
Duration : 1 h 45 min
Bit rate mode : Constant
Bit rate : 384 kb/s
Channel(s) : 6 channels
Channel layout : L R C LFE Ls Rs
Sampling rate : 48.0 kHz
Frame rate : 31.250 FPS (1536 SPF)
Compression mode : Lossy
Stream size : 291 MiB (1%)
Title : Dub [iTunes]
Language : Russian
Service kind : Complete Main
Default : Yes
Forced : Yes

Audio #2
ID : 3
Format : AC-3
Format/Info : Audio Coding 3
Commercial name : Dolby Digital
Codec ID : A_AC3
Duration : 1 h 45 min
Bit rate mode : Constant
Bit rate : 448 kb/s
Channel(s) : 6 channels
Channel layout : L R C LFE Ls Rs
Sampling rate : 48.0 kHz
Frame rate : 31.250 FPS (1536 SPF)
Compression mode : Lossy
Stream size : 340 MiB (1%)
Title : MVO [HDrezka Studio]
Language : Russian
Service kind : Complete Main
Default : No
Forced : No

Audio #3
ID : 4
Format : DTS XLL
Format/Info : Digital Theater Systems
Commercial name : DTS-HD Master Audio
Codec ID : A_DTS
Duration : 1 h 45 min
Bit rate mode : Variable
Bit rate : 1 787 kb/s
Channel(s) : 6 channels
Channel layout : C L R Ls Rs LFE
Sampling rate : 48.0 kHz
Frame rate : 93.750 FPS (512 SPF)
Bit depth : 16 bits
Compression mode : Lossless
Stream size : 1.32 GiB (6%)
Title : Original
Language : English
Default : No
Forced : No

Text #1
ID : 5
Format : UTF-8
Codec ID : S_TEXT/UTF8
Codec ID/Info : UTF-8 Plain Text
Duration : 1 h 40 min
Bit rate : 1 b/s
Count of elements : 12
Stream size : 1.03 KiB (0%)
Title : Forced [For HDRezka Studio]
Language : Russian
Default : No
Forced : No

Text #2
ID : 6
Format : UTF-8
Codec ID : S_TEXT/UTF8
Codec ID/Info : UTF-8 Plain Text
Duration : 1 h 39 min
Bit rate : 47 b/s
Count of elements : 798
Stream size : 34.6 KiB (0%)
Title : Full [Enigma]
Language : Russian
Default : No
Forced : No

Text #3
ID : 7
Format : UTF-8
Codec ID : S_TEXT/UTF8
Codec ID/Info : UTF-8 Plain Text
Duration : 1 h 38 min
Bit rate : 31 b/s
Count of elements : 788
Stream size : 22.6 KiB (0%)
Language : English
Default : No
Forced : No

Menu
00:00:00.000 : :Chapter 01
00:06:12.581 : :Chapter 02
00:14:09.807 : :Chapter 03
00:20:45.244 : :Chapter 04
00:26:29.588 : :Chapter 05
00:32:03.130 : :Chapter 06
00:38:09.954 : :Chapter 07
00:46:35.835 : :Chapter 08
00:52:06.749 : :Chapter 09
00:58:39.015 : :Chapter 10
01:06:19.976 : :Chapter 11
01:13:22.064 : :Chapter 12
01:20:52.264 : :Chapter 13
01:27:16.481 : :Chapter 14
01:33:55.421 : :Chapter 15
01:40:58.469 : :Chapter 16

pb.wtf



Скачать Побег из Претории через торрент https://i111.fastpic.ru/big/2020/0930/19/634387db8fe90a14cc0c1734b6366919.jpg Скачать фильм Побег из Претории через торрент бесплантно в хорошем качестве Описание: Двое борцов за свободу отбывают срок в одной из самых строгих тюрем мира - в «Претории». Вместе с другими узниками они планируют ... 9.6 10 5
Торрент: Зарегистрирован [2020-09-30 20:01] · скачан: 58 раз
Статус: √ проверено
Размер: 22.63 GB
Как cкачать? Как скачать Побег из Претории через торрент | qTorrent

% Раздел Тема Автор DL S | L
Фильмы 2019-2020 [DVDrip, WEB-DLRip, HDrip] (DUB, MVO) [ 1.42 GB ] Побег из Претории / Escape from Pretoria [2020 BDRip] - Twi7ter Скачать
250 | 4
Фильмы [HD 720p, 1080p] (Хороший звук DUB, MVO) [ 12.33 GB ] Побег из Претории / Escape from Pretoria [2020 BDRip 1080p] +MVO [HDrezka Studio] bober100 Скачать
8 | 0
Фильмы 2019-2020 [DVDrip, WEB-DLRip, HDrip] (DUB, MVO) [ 746 MB ] Побег из Претории / Escape from Pretoria [2020 HDRip] bober100 Скачать
5 | 0
Фильмы 2019-2020 [DVDrip, WEB-DLRip, HDrip] (DUB, MVO) [ 1.4 GB ] Побег из Претории / Escape from Pretoria [2020 HDRip-AVC] - ExKinoRay Enigma2010 Скачать
6 | 0
Фильмы 2019-2020 [DVDrip, WEB-DLRip, HDrip] (DUB, MVO) [ 1.41 GB ] Побег из Претории / Escape from Pretoria [2020 BDRip] bober100 Скачать
9 | 0
Фильмы 2019-2020 [DVDrip, WEB-DLRip, HDrip] (DUB, MVO) [ 1.45 GB ] Побег из Претории / Escape from Pretoria [2020 HDRip-AVC] MVO [HDrezka Studio] - ExKinoRay Enigma2010 Скачать
31 | 0
Фильмы 2019-2020 [DVDrip, WEB-DLRip, HDrip] (DUB, MVO) [ 1.46 GB ] Побег из Претории / Escape from Pretoria [2020 BDRip] MVO [HDrezka Studio] bober100 Скачать
5 | 0

28-11-2019 20:33  

Отключить всю рекламу на сайте

01-10-2020 16:10 Побег из Претории Скачать торрент  

Да уж, Гарри Поттер уже не тот...pb.wtf



    Дорогой пользователь! Огромная просьба, поблагодарите релизера, оцените раздачу и оставьте свои комментарий, если Вы скачали Побег из Претории через торрент бесплатно! Внесите свою лепту в развитие PiratBit!
    Комментировать посты могут только пользователи прошедшие не сложную регистрацию
    Показать сообщения:    

    Побег из Претории через торрент
    Скачать бесплатно Побег из Претории
    Побег из Претории скачать торрент
    Побег из Претории смотреть онлайн
    Cкачать фильм Побег из Претории бесплатно
    Побег из Претории скачать торрент в хорошем качестве
    Побег из Претории смотреть онлайн бесплатно в хорошем качестве


    Вы не можете начинать темы
    Вы не можете отвечать на сообщения
    Вы не можете редактировать свои сообщения
    Вы не можете удалять свои сообщения
    Вы не можете голосовать в опросах
    Вы не можете прикреплять файлы к сообщениям
    Вы можете скачивать файлы