Ссылка на приватное зеркало нашего сайта всего за 1$. Внимание количество ограничено!!!

2 сезон

iTunes

1 сезон

1

iTunes

iTunes

iTunes

1 сезон

RePack

30

ИГРА 18+

pack

ВАЖНО

!!Акция!!

Alien_RageХит недели

RePack

MK11
pack

Забери бонус

RePack

jed

!!Акция!!

Alien_Rage

RePack

fifa19

RePack

Assassins Creed: Odyssey

RePack

NEED FOR SPEED™ PAYBACK

4 сезон

9 сезон

Бесстыжие 9 сезон

Все сериалы

все сериалы на PB.wtf

RePack

FAR CRY 5
  

Своя земля / Сезон: 1 / Серии: 1-8 из 8 (Сергей Раевский) [2020, Драма, детектив, HDTVRip] pb.wtf

Своя земля через торрент pb.wtf

Раздают: 4 [ 199 KB/s ]
Размер: 5.18 GB | Добавлен: 28 д. назад | Торрент скачан:61 раз
Скачать  

30-09-2020 19:44 Своя земля Скачать торрент  

Своя земля
Год выпуска: 2020
Страна: Россия
Студия: Кинокомпания Щука
Жанр: Драма, детектив
Продолжительность: ~ 00:51:00
Субтитры: отсутствуют

Режиссер: Сергей Раевский



В ролях: Игорь Скляр, Егор Тимцуник, Павел Баршак, Евгений Антропов, Анна Лутцева, Кирилл Полухин, Ольга Веникова, Николай Качура, Татьяна Яковенко, Диана Енакаева, Александр Андриенко, Ольга Новосад, Дмитрий Прокофьев, Екатерина Вуличенко, Максим Лагашкин, Михаил Стародубов, Анатолий Голуб, Александр Резалин, Арсений Робак, Яна Василевская

Описание: Алексей Куваев после армии возвращается в родные края. Он находит опустевший дом женщины, которая воспитала его как родного сына. Алексей верит новым людям, ему кажется, что он обретает то, что давно потерял - семью. Но цена за его взрослую жизнь - беспощадная разгадка тайны трагической гибели родителей. Боль, с которой уже смирился, однажды снова придёт в жизнь Алексея.

Качество: HDTVRip
Формат: AVI

Видео: XviD, ~ 1600 Кбит/с, 720x400, 25 кадр/с
Аудио: 48.0 kHz, AC3 Dolby Digital, 2/0 (L,R) ch, ~ 192 kbps
скриншот  скриншот  скриншот  скриншот  скриншот  

General
Complete name: H:\fiiles x\Своя земля..2020.HDTVRip.Files-x\03. Своя земля.2020.HDTVRip.Files-x.avi
Format: AVI
Format/Info: Audio Video Interleave
File size: 662 MiB
Duration: 51mn 22s
Overall bit rate: 1 801 Kbps
Writing application: VirtualDubMod 1.5.10.3 | www.virtualdub-fr.org || (build 2550/release)
Writing library: VirtualDubMod build 2550/release

Video
ID: 0
Format: MPEG-4 Visual
Format profile: Advanced Simple@L5
Format settings, BVOP: 1
Format settings, QPel: No
Format settings, GMC: No warppoints
Format settings, Matrix: Custom
Codec ID: XVID
Codec ID/Hint: XviD
Duration: 51mn 22s
Bit rate: 1 599 Kbps
Width: 720 pixels
Height: 400 pixels
Display aspect ratio: 16:9
Frame rate: 25.000 fps
Color space: YUV
Chroma subsampling: 4:2:0
Bit depth: 8 bits
Scan type: Progressive
Compression mode: Lossy
Bits/(Pixel*Frame): 0.222
Stream size: 588 MiB (89%)
Writing library: XviD 73

Audio
ID: 1
Format: AC-3
Format/Info: Audio Coding 3
Mode extension: CM (complete main)
Codec ID: 2000
Duration: 51mn 22s
Bit rate mode: Constant
Bit rate: 192 Kbps
Channel(s): 2 channels
Channel positions: Front: L R
Sampling rate: 48.0 KHz
Bit depth: 16 bits
Compression mode: Lossy
Stream size: 70.6 MiB (11%)
Alignment: Split accross interleaves
Interleave, duration: 40 ms (1.00 video frame)
Interleave, preload duration: 500 ms

pb.wtf



Скачать Своя земля через торрент https://i111.fastpic.ru/big/2020/0928/6b/4c5cbedf305f538f26d9ee581059236b.jpg Скачать фильм Своя земля через торрент бесплантно в хорошем качестве Описание: Алексей Куваев после армии возвращается в родные края. Он находит опустевший дом женщины, которая воспитала его как родного сына. ... 10 10 4
Торрент: Зарегистрирован [2020-09-30 19:44] · скачан: 61 раз
Статус: √ проверено
Размер: 5.18 GB
Как cкачать? Как скачать Своя земля через торрент | qTorrent

% Раздел Тема Автор DL S | L
Наши сериалы [ 22.81 GB ] Своя земля / Сезон: 1 / Серии: 1-8 из 8 [2020 HDTV 1080i] bober100 Скачать
3 | 0
Наши сериалы [ 6.31 GB ] Своя земля / Сезон: 1 / Серии: 1-8 из 8 [2020 HDTVRip-AVC] bober100 Скачать
2 | 0

28-11-2019 20:33  

Отключить всю рекламу на сайте

    Дорогой пользователь! Огромная просьба, поблагодарите релизера, оцените раздачу и оставьте свои комментарий, если Вы скачали Своя земля через торрент бесплатно! Внесите свою лепту в развитие PiratBit!
    Комментировать посты могут только пользователи прошедшие не сложную регистрацию
    Показать сообщения:    

    Своя земля через торрент
    Скачать бесплатно Своя земля
    Своя земля скачать торрент
    Своя земля смотреть онлайн
    Cкачать фильм Своя земля бесплатно
    Своя земля скачать торрент в хорошем качестве
    Своя земля смотреть онлайн бесплатно в хорошем качестве


    Вы не можете начинать темы
    Вы не можете отвечать на сообщения
    Вы не можете редактировать свои сообщения
    Вы не можете удалять свои сообщения
    Вы не можете голосовать в опросах
    Вы не можете прикреплять файлы к сообщениям
    Вы можете скачивать файлы