2 сезон

iTunes

MVO

1

2 сезон

iTunes

iTunes

1 сезон

RePack

30

Новинка

ВАЖНО

ИГРА 18+

pack

RePack

MK11
pack

Легкие деньги

RePack

jed

RePack

fifa19

RePack

RDR2

RePack

NEED FOR SPEED™ PAYBACK

4 сезон

9 сезон

Бесстыжие 9 сезон

Все сериалы

все сериалы на PB.wtf

RePack

FAR CRY 5

Anonymous, добрый день, мы не успеваем собрать деньги на оплату серверов за декабрь и январь, помогите нам пожалуйста в это трудное время. В качестве благодарности мы отключим Вам всю рекламу на сайте (укажите свой ник в строку Ваше имя)!

×
  
Magnet ссылка

Реальные кабаны / Wild Hogs (Уолт Бекер) [2007 г., боевик, комедия, приключения, BDRip 720p / 60 FPS, Дубляж] от R.G. HD-Films pb.wtf

Реальные кабаны через торрент pb.wtf

Раздают: 1 [ 0 KB/s ]
Размер: 3.04 GB | Добавлен: 3 мес. 17 д. назад | Торрент скачан:65 раз
Скачать  

01-10-2020 14:52 Реальные кабаны Скачать торрент  

Реальные кабаны / Wild Hogs
Год выпуска: 2007
Страна: США
Жанр: боевик, комедия, приключения
Продолжительность: 01:39:39
Перевод: Дубляж
Субтитры: Russian, English

Режиссер: Уолт Бекер

Премьера в мире: 27 февраля 2007

rating

В ролях: Тим Аллен, Джон Траволта, Мартин Лоуренс, Уильям Х. Мэйси, Рэй Лиотта, Мариса Томей, Кевин Дюран, Стивен Тоболовски, М. К. Гейни, Джилл Хеннесси

Описание: Четверо благоустроенных приятелей из зажиточного пригорода решают на время отвлечься от житейских проблем и вспомнить былые раздольные деньки, когда все четверо мечтали о байкерской свободе. Еженедельные встречи за бокалом безалкогольного пива в местном мотоклубе уже поднаскучили, и друзья решают рвануть в путешествие через все Штаты, с севера на юг, до самого Нью-Мексико.

Остается только зашвырнуть подальше надоевшие мобильники, надеть косухи, повязать банданы, и назваться «Реальными кабанами» — настоящими искателями приключений. А приключений будет немало. Ночевки под открытым небом, купание в горячем источнике, разведение костра с помощью собственной палатки, близкие контакты третьей степени с провинциальным шерифом и столкновение с оравой неподдельных, бородатых и нечесаных байкеров — зловещей бандой «Дель Фуэгос» под предводительством атамана Джека.

Пройти мимо байкеров-домоседов забияки из «Дель Фуэгос» просто так не могут, потому что они — банда. Схватка в лучших традициях классических вестернов неминуема, и еще неизвестно, что окажется сильнее — обветренные кулаки байкеров-южан, или сила духа Реальных Кабанов…


Качество: BDRip 720p / 60 FPS
Формат: MKV
Видео кодек: H.264
Аудио кодек: AC3
Видео: x264, 1280 x 544 ( 2,35:1 ), 3977 kbps, 60,000 fps, ( 0.095 bpp)
Аудио#1: Русский, AC-3, 48.0 KHz, 6 ch, 384 Kbps Dub ( R5 )
Релиз от: Автор рипа: slaventi-69
x264 [info]: frame I:1682 Avg QP:18.35 size: 95129
x264 [info]: frame P:91069 Avg QP:19.38 size: 16965
x264 [info]: frame B:265610 Avg QP:21.27 size: 4760
x264 [info]: consecutive B-frames: 3.9% 3.5% 10.1% 18.8% 47.4% 16.3%


Общее
Уникальный идентификатор : 284411170356976132251446592228579772795 (0xD5F79954D82706176FDA9474E17E897B)
Полное имя : F:\Wild.Hogs.(2007).BDRip.720p.(60 Fps).mkv
Формат : Matroska
Версия формата : Version 4
Размер файла : 3,04 Гбайт
Продолжительность : 1 ч. 39 м.
Общий поток : 4365 Кбит/сек
Название фильма : Реальные кабаны / Wild Hogs (2007) BDRip 720p (60 Fps)
Дата кодирования : UTC 2020-09-18 14:52:08
Программа кодирования : mkvmerge v35.0.0 ('All The Love In The World') 64-bit
Библиотека кодирования : libebml v1.3.9 + libmatroska v1.5.2

Видео
Идентификатор : 1
Формат : AVC
Формат/Информация : Advanced Video Codec
Профиль формата : High@L4.1
Настройки формата : CABAC / 8 Ref Frames
Параметр CABAC формата : Да
Параметр RefFrames формата : 8 кадров
Идентификатор кодека : V_MPEG4/ISO/AVC
Продолжительность : 1 ч. 39 м.
Битрейт : 3977 Кбит/сек
Ширина : 1280 пикселей
Высота : 544 пикселя
Соотношение сторон : 2,35:1
Режим частоты кадров : Постоянный
Частота кадров : 60,000 кадров/сек
Цветовое пространство : YUV
Субдискретизация насыщенности : 4:2:0
Битовая глубина : 8 бит
Тип развёртки : Прогрессивная
Бит/(Пиксели*Кадры) : 0.095
Размер потока : 2,77 Гбайт (91%)
Заголовок : slaventi-69 ( R.G. HD-Films | 60 fps )
Библиотека кодирования : x264 core 130 r2273 b3065e6
Настройки программы : cabac=1 / ref=8 / deblock=1:0:0 / analyse=0x3:0x113 / me=umh / subme=9 / psy=1 / psy_rd=1.00:0.00 / mixed_ref=1 / me_range=32 / chroma_me=1 / trellis=2 / 8x8dct=1 / cqm=0 / deadzone=21,11 / fast_pskip=1 / chroma_qp_offset=-2 / threads=10 / lookahead_threads=4 / sliced_threads=0 / nr=0 / decimate=1 / interlaced=0 / bluray_compat=0 / constrained_intra=0 / bframes=5 / b_pyramid=2 / b_adapt=2 / b_bias=0 / direct=1 / weightb=1 / open_gop=0 / weightp=2 / keyint=600 / keyint_min=60 / scenecut=40 / intra_refresh=0 / rc=crf / mbtree=0 / crf=18.0 / qcomp=0.60 / qpmin=0 / qpmax=69 / qpstep=4 / ip_ratio=1.40 / pb_ratio=1.30 / aq=1:1.00
Язык : English
Default : Да
Forced : Нет

Аудио
Идентификатор : 2
Формат : AC-3
Формат/Информация : Audio Coding 3
Коммерческое название : Dolby Digital
Идентификатор кодека : A_AC3
Продолжительность : 1 ч. 39 м.
Вид битрейта : Постоянный
Битрейт : 384 Кбит/сек
Каналы : 6 каналов
Channel layout : L R C LFE Ls Rs
Частота : 48,0 КГц
Частота кадров : 31,250 кадров/сек (1536 SPF)
Битовая глубина : 16 бит
Метод сжатия : С потерями
Размер потока : 273 Мбайт (9%)
Заголовок : Dub ( R5 )
Язык : Russian
ServiceKind/String : Complete Main
Default : Да
Forced : Нет

Текст #1
Идентификатор : 3
Формат : UTF-8
Идентификатор кодека : S_TEXT/UTF8
Идентификатор кодека/Информация : UTF-8 Plain Text
Продолжительность : 1 ч. 36 м.
Битрейт : 1 бит/сек
ElementCount : 25
Размер потока : 906 байт (0%)
Заголовок : Forced
Язык : Russian
Default : Нет
Forced : Нет

Текст #2
Идентификатор : 4
Формат : UTF-8
Идентификатор кодека : S_TEXT/UTF8
Идентификатор кодека/Информация : UTF-8 Plain Text
Продолжительность : 1 ч. 36 м.
Битрейт : 112 бит/сек
ElementCount : 1571
Размер потока : 79,2 Кбайт (0%)
Язык : Russian
Default : Нет
Forced : Нет

Текст #3
Идентификатор : 5
Формат : UTF-8
Идентификатор кодека : S_TEXT/UTF8
Идентификатор кодека/Информация : UTF-8 Plain Text
Продолжительность : 1 ч. 36 м.
Битрейт : 111 бит/сек
ElementCount : 1571
Размер потока : 78,8 Кбайт (0%)
Язык : English
Default : Нет
Forced : Нет

Меню
00:00:00.000 : :The Boys
00:08:21.959 : :Road Trip
00:14:31.370 : :No Rules
00:20:28.852 : :The Real Deal
00:28:11.981 : :The Day Is Today
00:34:27.231 : :Del Fuego's Bar
00:40:59.081 : :Getting Dudley's Bike Back
00:47:19.461 : :Madrid
00:53:19.738 : :Bull Slap
01:01:23.846 : :Bobby And The Del Fuegos
01:11:38.919 : :Jack Comes To Madrid
01:16:41.096 : :Dudley vs. Del Fuegos
01:21:53.783 : :Standoff At The Diner
01:29:19.312 : :Leaving Madrid/Trip's End
01:34:07.725 : :Credits

Просьба к переливающим на другие сайты, в оформлении указывайте пожалуйста авторство группы R.G. HD-Films pb.wtf



Скачать Реальные кабаны через торрент http://img.lostpic.net/orig_images/0/8/8/0887e1357912e53cb755fef259435e66.jpg Скачать фильм Реальные кабаны через торрент бесплантно в хорошем качестве Описание: Четверо благоустроенных приятелей из зажиточного пригорода решают на время отвлечься от житейских проблем и вспомнить былые ... 10 10 6
Info! Золотая раздача, скачанное не засчитывается.
Торрент: Зарегистрирован [2020-10-01 14:52] · скачан: 65 раз
Статус: √ проверено
Размер: 3.04 GB
Как cкачать? Как скачать Реальные кабаны через торрент | UTorrent

28-11-2019 20:33  

Отключить всю рекламу на сайте

01-10-2020 16:18 Реальные кабаны Скачать торрент  

Пропустил, исправлюсь.pb.wtf



    Дорогой пользователь! Огромная просьба, поблагодарите релизера, оцените раздачу и оставьте свои комментарий, если Вы скачали Реальные кабаны через торрент бесплатно! Внесите свою лепту в развитие PiratBit!
    Комментировать посты могут только пользователи прошедшие не сложную регистрацию
    Показать сообщения:    

    Реальные кабаны через торрент
    Скачать бесплатно Реальные кабаны
    Реальные кабаны скачать торрент
    Реальные кабаны смотреть онлайн
    Cкачать фильм Реальные кабаны бесплатно
    Реальные кабаны скачать торрент в хорошем качестве
    Реальные кабаны смотреть онлайн бесплатно в хорошем качестве


    Вы не можете начинать темы
    Вы не можете отвечать на сообщения
    Вы не можете редактировать свои сообщения
    Вы не можете удалять свои сообщения
    Вы не можете голосовать в опросах
    Вы не можете прикреплять файлы к сообщениям
    Вы можете скачивать файлы