Ссылка на приватное зеркало нашего сайта всего за 1$. Внимание количество ограничено!!!

2 сезон

iTunes

1 сезон

1

2 сезон

2 сезон

iTunes

1 сезон

RePack

30

Ultimate

ВАЖНО

ИГРА 18+

pack

RePack

MK11
pack

Забери бонус

RePack

jed

!!Акция!!

Alien_Rage

RePack

fifa19

RePack

Assassins Creed: Odyssey

RePack

NEED FOR SPEED™ PAYBACK

4 сезон

9 сезон

Бесстыжие 9 сезон

Все сериалы

все сериалы на PB.wtf

RePack

FAR CRY 5
  

Пропавшая / Одна / Alone (Джон Хайамс) [2020, Триллер, WEB-DL 1080p] DUB [iTunes] pb.wtf

Пропавшая через торрент pb.wtf

Раздают: 7 [ 127 KB/s ]
Размер: 3.49 GB | Добавлен: 1 мес. 27 д. назад | Торрент скачан:308 раз
Скачать  

02-10-2020 04:28 Пропавшая Скачать торрент  

Пропавшая | Одна | Alone
Год выпуска: 2020
Страна: США
Студия: Mill House Motion Pictures, Paperclip
Жанр: Триллер
Продолжительность: 01:37:53
Перевод: Дублированный | iTunes
Субтитры: Русские (Full), английские

Режиссер: Джон Хайамс

rating

В ролях: Джулз Уиллкокс, Марк Менчака, Энтони Хилд, Джонатан Розенталь, Лаура Дуйн, Макс Хаскинс, Шелли Липкин, Бетти Мойер

Описание: Сюжет фильма рассказывает о девушке Джессике, которая отправляется к родителям, чтобы повидаться с ними, но в пути сталкивается с безжалостным маньяком, который похищает ее. Она умудряется бежать из заточения, но оказывается в непроходимых лесах, с маньяком на хвосте, который устремляется за ней в погоню...

Качество: WEB-DL 1080p
Формат: MKV

Видео: MPEG-4 AVC, 1920x798, 4340 Kbit/s, 23.976 fps
Аудио#1: 48 kHz, AC3, 5.1, 384 Kbps | iTunes | RUS |
Аудио#2: 48 kHz, AC3, 5.1, 384 Kbps | Оригинал | ENG |
скриншот  скриншот  скриншот  скриншот  скриншот  

General
Unique ID: 323712847021120891387488925619831540012 (0xF388D398862751A88A85A7F2E6B1892C)
Complete name: D:\Video111\Alone.2020.WEB-DL.1080p.seleZen.mkv
Format: Matroska
Format version: Version 4
File size: 3.49 GiB
Duration: 1 h 37 min
Overall bit rate: 5 110 kb/s
Movie name: Alone 2020 from селезень
Encoded date: UTC 2020-10-01 21:05:27
Writing application: mkvmerge v40.0.0 ('Old Town Road + Pony') 64-bit
Writing library: libebml v1.3.9 + libmatroska v1.5.2

Video
ID: 1
Format: AVC
Format/Info: Advanced Video Codec
Format profile: High@L4
Format settings: CABAC / 5 Ref Frames
Format settings, CABAC: Yes
Format settings, Reference: 5 frames
Codec ID: V_MPEG4/ISO/AVC
Duration: 1 h 37 min
Bit rate: 4 340 kb/s
Width: 1 920 pixels
Height: 798 pixels
Display aspect ratio: 2.40:1
Frame rate mode: Constant
Frame rate: 23.976 (24000/1001) FPS
Color space: YUV
Chroma subsampling: 4:2:0
Bit depth: 8 bits
Scan type: Progressive
Bits/(Pixel*Frame): 0.118
Stream size: 2.97 GiB (85%)
Language: English
Default: Yes
Forced: No
Color range: Limited
Color primaries: BT.709
Transfer characteristics: BT.709
Matrix coefficients: BT.709

Audio #1
ID: 2
Format: AC-3
Format/Info: Audio Coding 3
Commercial name: Dolby Digital
Codec ID: A_AC3
Duration: 1 h 37 min
Bit rate mode: Constant
Bit rate: 384 kb/s
Channel(s): 6 channels
Channel layout: L R C LFE Ls Rs
Sampling rate: 48.0 kHz
Frame rate: 31.250 FPS (1536 SPF)
Compression mode: Lossy
Stream size: 269 MiB (8%)
Title: iTunes
Language: Russian
Service kind: Complete Main
Default: Yes
Forced: Yes

Audio #2
ID: 3
Format: AC-3
Format/Info: Audio Coding 3
Commercial name: Dolby Digital
Codec ID: A_AC3
Duration: 1 h 37 min
Bit rate mode: Constant
Bit rate: 384 kb/s
Channel(s): 6 channels
Channel layout: L R C LFE Ls Rs
Sampling rate: 48.0 kHz
Frame rate: 31.250 FPS (1536 SPF)
Compression mode: Lossy
Stream size: 269 MiB (8%)
Title: Original
Language: English
Service kind: Complete Main
Default: No
Forced: No

Text #1
ID: 4
Format: UTF-8
Codec ID: S_TEXT/UTF8
Codec ID/Info: UTF-8 Plain Text
Duration: 1 h 32 min
Bit rate: 31 b/s
Count of elements: 706
Stream size: 21.2 KiB (0%)
Title: Full
Language: Russian
Default: No
Forced: No

Text #2
ID: 5
Format: UTF-8
Codec ID: S_TEXT/UTF8
Codec ID/Info: UTF-8 Plain Text
Duration: 1 h 29 min
Bit rate: 24 b/s
Count of elements: 564
Stream size: 15.8 KiB (0%)
Title: Full
Language: English
Default: No
Forced: No

pb.wtf



Скачать Пропавшая через торрент https://b.radikal.ru/b04/2010/c5/760ca7c383f5.jpg Скачать фильм Пропавшая через торрент бесплантно в хорошем качестве Описание: Сюжет фильма рассказывает о девушке Джессике, которая отправляется к родителям, чтобы повидаться с ними, но в пути сталкивается с ... 10 10 8
Торрент: Зарегистрирован [2020-10-02 04:28] · скачан: 308 раз
Статус: √ проверено
Размер: 3.49 GB
Как cкачать? Как скачать Пропавшая через торрент | qTorrent

% Раздел Тема Автор DL S | L
Фильмы 2019-2020 [DVDrip, WEB-DLRip, HDrip] (DUB, MVO) [ 745 MB ] Пропавшая / Одна / Alone [2020 WEB-DLRip] bober100 Скачать
2 | 0
Фильмы (WEB-DL 720p, 1080p) [ 2.58 GB ] Пропавшая / Одна / Alone [2020 WEB-DL 720p] bober100 Скачать
5 | 0
Фильмы 2019-2020 [DVDrip, WEB-DLRip, HDrip] (DUB, MVO) [ 1.46 GB ] Пропавшая / Одна / Alone [2020 WEB-DLRip] bober100 Скачать
15 | 0
T Фильмы 2019-2020 [DVDrip, WEB-DLRip, HDrip] (DUB, MVO) [ 1.43 GB ] Пропавшая / Одна / Alone [2020 WEB-DLRip-AVC] [MVO] [@MUZOBOZ@] от MediaBit Lithuania Скачать
15 | 0

28-11-2019 20:33  

Отключить всю рекламу на сайте

    Дорогой пользователь! Огромная просьба, поблагодарите релизера, оцените раздачу и оставьте свои комментарий, если Вы скачали Пропавшая через торрент бесплатно! Внесите свою лепту в развитие PiratBit!
    Комментировать посты могут только пользователи прошедшие не сложную регистрацию
    Показать сообщения:    

    Пропавшая через торрент
    Скачать бесплатно Пропавшая
    Пропавшая скачать торрент
    Пропавшая смотреть онлайн
    Cкачать фильм Пропавшая бесплатно
    Пропавшая скачать торрент в хорошем качестве
    Пропавшая смотреть онлайн бесплатно в хорошем качестве


    Вы не можете начинать темы
    Вы не можете отвечать на сообщения
    Вы не можете редактировать свои сообщения
    Вы не можете удалять свои сообщения
    Вы не можете голосовать в опросах
    Вы не можете прикреплять файлы к сообщениям
    Вы можете скачивать файлы