Всегда рабочее зеркало без VPN и Proxy просто перед .vidak.icu напиши любое слово или цифру, Пример http://qjab.vidak.icu

MVO

Лицензия

1 сезон

1

1 сезон

iTunes

1 сезон

13

1 сезон

Deluxe

pack

Рекомендуем

Пиратка

30

ВАЖНО

RePack

MK11

RePack

jed

RePack

fifa19

RePack

RDR2

RePack

NEED FOR SPEED™ PAYBACK

Кинопоиск HD

6 сезон

 Острые козырьки 6 сезон

Все сериалы

все сериалы на PB.wtf

RePack

FAR CRY 5
  
Magnet ссылка

Номер один (Михаил Расходников) [2020, Комедия, WEB-DL 1080p] [iTunes] pb.wtf

Номер один через торрент pb.wtf

Размер: 3.2 GB | Добавлен: 1 год 8 мес. назад | Торрент скачан:200 раз
Смотреть онлайн Номер один | Скачать    Ребята, помогите собрать деньги на оплату серверов!!!

03-10-2020 08:22 Номер один Скачать торрент  

Номер один
Год выпуска: 2020
Страна: Россия
Выпущено: «Реноватио», «Мегого», «M Продакшн»
Жанр: Комедия
Продолжительность: 01:32:34
Перевод: Не требуется | iTunes
Субтитры: отсутствуют

Режиссер: Михаил Расходников



В ролях: Филипп Янковский, Дмитрий Власкин, Ксения Собчак, Рина Гришина, Николай Шрайбер, Мария Лобанова, Андрей Федорцов, Игорь Миркурбанов, Марина Ермошкина

Описание: Артем, молодой авантюрист, встречает Феликса — некогда легендарного похитителя предметов искусства, которого называли «Номер один». «Старая школа» и новичок решают провернуть аферу века – украсть одну из самых дорогих картин современности – «№ 1» Марка Ротко из галереи, принадлежащей бывшей жене Феликса и ее нового мужа. Волей случая Артем знакомится с Мариной и влюбляется в нее. А она оказывается следователем и очень хочет поймать Феликса с поличным.

Качество: WEB-DL 1080p
Формат: MKV

Видео: MPEG-4 AVC, 4565 Kb/s, 1920x806, 24 fps
Аудио: 48 kHz, AC3 Dolby Digital, 3/2 (L,C,R,l,r) + LFE ch, ~384 kbps
скриншот  скриншот  скриншот  скриншот  

Complete name: Nomer.odin.2020.1080p.WEB-DL.ELEKTRI4KA.UNIONGANG.mkv
Format: Matroska
Format version: Version 4 / Version 2
File size: 3.20 GiB
Duration: 1 h 32 min
Overall bit rate: 4 951 kb/s
Movie name: .ELEKTRI4KA.UNIONGANG.
Encoded date: UTC 2020-10-02 20:45:11
Writing application: mkvmerge v8.3.0 ('Over the Horizon') 64bit
Writing library: libebml v1.3.1 + libmatroska v1.4.2

Video
ID: 1
Format: AVC
Format/Info: Advanced Video Codec
Format profile: High@L4
Format settings, CABAC: Yes
Format settings, Reference frames: 5 frames
Codec ID: V_MPEG4/ISO/AVC
Duration: 1 h 32 min
Bit rate: 4 565 kb/s
Width: 1 920 pixels
Height: 806 pixels
Display aspect ratio: 2.40:1
Frame rate mode: Constant
Frame rate: 24.000 FPS
Color space: YUV
Chroma subsampling: 4:2:0
Bit depth: 8 bits
Scan type: Progressive
Bits/(Pixel*Frame): 0.123
Stream size: 2.95 GiB (92%)
Title: .ELEKTRI4KA.UNIONGANG.
Language: English
Default: Yes
Forced: No
Color range: Limited
Color primaries: BT.709
Transfer characteristics: BT.709
Matrix coefficients: BT.709

Audio
ID: 2
Format: AC-3
Format/Info: Audio Coding 3
Mode extension: CM (complete main)
Format settings, Endianness: Big
Codec ID: A_AC3
Duration: 1 h 32 min
Bit rate mode: Constant
Bit rate: 384 kb/s
Channel(s): 6 channels
Channel positions: Front: L C R, Side: L R, LFE
Sampling rate: 48.0 kHz
Frame rate: 31.250 FPS (1536 spf)
Bit depth: 16 bits
Compression mode: Lossy
Stream size: 254 MiB (8%)
Title: iTunes
Language: Russian
Default: Yes
Forced: No

Menu
00:00:00.000: en:Глава 1
00:08:36.875: en:Глава 2
00:16:57.500: en:Глава 3
00:25:09.375: en:Глава 4
00:33:11.166: en:Глава 5
00:41:33.957: en:Глава 6
00:50:05.915: en:Глава 7
00:58:20.206: en:Глава 8
01:07:11.122: en:Глава 9
01:15:37.580: en:Глава 10
01:23:57.663: en:Глава 11

pb.wtf



Скачать Номер один через торрент https://i3.imageban.ru/out/2020/10/02/99e54723381810ceddd6774378ff0244.png Скачать, смотреть онлайн Номер один бесплантно в хорошем качестве Описание: Артем, молодой авантюрист, встречает Феликса — некогда легендарного похитителя предметов искусства, которого называли «Номер ... 10 10 9
Торрент: Зарегистрирован [2020-10-03 08:22] · скачан: 200 раз
Статус: √ проверено
Размер: 3.2 GB
Как cкачать? Как скачать Номер один через торрент | UTorrent

% Раздел Тема Автор DL S | L
Наши новые фильмы 2020 - 2022 [ 745 MB ] Номер один [2020 WEB-DLRip] bober100 Скачать
1 | 0
Наши новые фильмы 2020 - 2022 [ 1.46 GB ] Номер один [2020 WEB-DLRip-AVC] bober100 Скачать
1 | 0
Наши новые фильмы 2020 - 2022 [ 1.46 GB ] Номер один [2020 WEB-DLRip] bober100 Скачать
1 | 0
T Наши фильмы (HD, WEB-DL 720p, 1080p) [ 2.72 GB ] Номер один [2020 WEBRip 720p] Russian Mafia Скачать
1 | 0
T Наши новые фильмы 2020 - 2022 [ 752 MB ] Номер один [2020 WEBRip-AVC] [RUS] от MediaBit Lithuania Скачать
1 | 0
T Фильмы 2019-2020 [DVDrip, WEB-DLRip, HDrip] (DUB, MVO) [ 1.2 GB ] Допросная номер один / 1 Interrogation [2020 WEB-DLRip-AVC] [MVO] [MUZOBOZ@] от MediaBit Lithuania Скачать
1 | 0
T Фильмы (мультфильмы) cо спонсором показа (Новинки AVI/MKV) [ 4.52 GB ] Правило номер один / Rule number one [2018 Мело WEB-DL 720p] MVO ["Синема УС"] bober100 Скачать
1 | 0

28-11-2019 20:33  

Отключить всю рекламу на сайте

    Дорогой пользователь! Огромная просьба, поблагодарите релизера, оцените раздачу и оставьте свои комментарий, если Вы скачали Номер один через торрент бесплатно!
    Комментировать посты могут только пользователи прошедшие не сложную регистрацию
    Показать сообщения:    

    Номер один через торрент
    Скачать бесплатно Номер один
    Номер один скачать торрент
    Номер один смотреть онлайн
    Cкачать фильм Номер один бесплатно
    Номер один скачать торрент в хорошем качестве
    Номер один смотреть онлайн бесплатно в хорошем качестве


    Вы не можете начинать темы
    Вы не можете отвечать на сообщения
    Вы не можете редактировать свои сообщения
    Вы не можете удалять свои сообщения
    Вы не можете голосовать в опросах
    Вы не можете прикреплять файлы к сообщениям
    Вы можете скачивать файлы