2 сезон

iTunes

MVO

1

2 сезон

iTunes

iTunes

1 сезон

RePack

30

Новинка

ВАЖНО

ИГРА 18+

pack

RePack

MK11
pack

Легкие деньги

RePack

jed

RePack

fifa19

RePack

RDR2

RePack

NEED FOR SPEED™ PAYBACK

4 сезон

9 сезон

Бесстыжие 9 сезон

Все сериалы

все сериалы на PB.wtf

RePack

FAR CRY 5

Anonymous, доброе утро, мы не успеваем собрать деньги на оплату серверов за декабрь и январь, помогите нам пожалуйста в это трудное время. В качестве благодарности мы отключим Вам всю рекламу на сайте (укажите свой ник в строку Ваше имя)!

×
  
Magnet ссылка

Призраки / The Haunted (Дэвид Холройд) [2018 г., ужасы, триллер, детектив, WEB-DLRip-AVC] [DUB] [iTunes] от MediaBit pb.wtf

Призраки через торрент pb.wtf

Размер: 1.42 GB | Добавлен: 3 мес. 24 д. назад | Торрент скачан:40 раз
Скачать  

03-10-2020 13:52 Призраки Скачать торрент  


Призраки / The Haunted
Информация о фильме:
Название: Призраки
Оригинальное название: The Haunted
Год выхода: 2018
Жанр: ужасы, триллер, детектив
Режиссер: Дэвид Холройд
В ролях: Ник Байли, Мэгги Дэниелс, Вирджиния Денэм, Рэй Макаллан, Керсти Стил, Софи Стивенс

Описание: Эмили соглашается работать ночной сиделкой для одинокого старика, живущего в старинном доме в глухой местности. Однако, в первую же смену девушка чувствует присутствие в доме потусторонних сил и понимает, что её жизнь под угрозой.

rating

Страна: Великобритания
Студия: TH Film
Продолжительность: 01:15:20
Перевод: Дублированное - iTunes

Информация о файле:
Кодек: AVC
Формат: MKV
Качество: WEB-DLRip-AVC
Видео: MPEG-4 AVC, 1024x426 (2.40:1), 2 314 kb/s, 24.000 fps, 0.221
Аудио RU: AC3, 6 ch, 48 kHz, 384 kbps
Навигация по главам: есть

General
Unique ID : 313343972832833589153360152130827646126 (0xEBBBDAA0DF0E8CFAB958E7A090F8F4AE)
Complete name : D:uTorrentРипы_от_wolf1245_MediaBitThe Haunted (2018) from wolf1245 & MediaBit.mkv
Format : Matroska
Format version : Version 4
File size : 1.42 GiB
Duration : 1 h 15 min
Overall bit rate : 2 699 kb/s
Movie name : Призраки / The Haunted (2018) from wolf1245 & MediaBit
Encoded date : UTC 2020-10-03 13:41:07
Writing application : mkvmerge v50.0.0 ('Awakenings') 64-bit
Writing library : libebml v1.4.0 + libmatroska v1.6.2
Video
ID : 1
Format : AVC
Format/Info : Advanced Video Codec
Format profile : High@L4.1
Format settings : CABAC / 11 Ref Frames
Format settings, CABAC : Yes
Format settings, Reference frames : 11 frames
Codec ID : V_MPEG4/ISO/AVC
Duration : 1 h 15 min
Bit rate : 2 314 kb/s
Width : 1 024 pixels
Height : 426 pixels
Display aspect ratio : 2.40:1
Frame rate mode : Constant
Frame rate : 24.000 FPS
Color space : YUV
Chroma subsampling : 4:2:0
Bit depth : 8 bits
Scan type : Progressive
Bits/(Pixel*Frame) : 0.221
Stream size : 1.22 GiB (86%)
Title : wolf1245 & MediaBit
Writing library : x264 core 157 r2958 57baac4
Encoding settings : cabac=1 / ref=11 / deblock=1:-3:-3 / analyse=0x3:0x133 / me=umh / subme=11 / psy=1 / psy_rd=1.00:0.06 / mixed_ref=1 / me_range=48 / chroma_me=1 / trellis=2 / 8x8dct=1 / cqm=0 / deadzone=21,11 / fast_pskip=0 / chroma_qp_offset=-3 / threads=10 / lookahead_threads=2 / sliced_threads=0 / nr=0 / decimate=0 / interlaced=0 / bluray_compat=0 / constrained_intra=0 / bframes=11 / b_pyramid=2 / b_adapt=2 / b_bias=0 / direct=3 / weightb=1 / open_gop=0 / weightp=2 / keyint=240 / keyint_min=24 / scenecut=40 / intra_refresh=0 / rc_lookahead=60 / rc=2pass / mbtree=0 / bitrate=2314 / ratetol=1.0 / qcomp=0.60 / qpmin=0 / qpmax=69 / qpstep=4 / cplxblur=20.0 / qblur=0.5 / vbv_maxrate=50000 / vbv_bufsize=62500 / nal_hrd=none / filler=0 / ip_ratio=1.40 / pb_ratio=1.30 / aq=2:1.00
Language : English
Default : Yes
Forced : No
Color range : Limited
Color primaries : BT.709
Transfer characteristics : BT.709
Matrix coefficients : BT.709
Audio
ID : 2
Format : AC-3
Format/Info : Audio Coding 3
Commercial name : Dolby Digital
Codec ID : A_AC3
Duration : 1 h 15 min
Bit rate mode : Constant
Bit rate : 384 kb/s
Channel(s) : 6 channels
Channel layout : L R C LFE Ls Rs
Sampling rate : 48.0 kHz
Frame rate : 31.250 FPS (1536 SPF)
Compression mode : Lossy
Stream size : 207 MiB (14%)
Title : DUB | iTunes
Language : Russian
Service kind : Complete Main
Default : Yes
Forced : No
Menu
00:00:00.000 : :1
00:06:52.500 : :2
00:14:00.833 : :3
00:24:33.208 : :4
00:32:14.248 : :5
00:42:50.038 : :6
00:53:17.038 : :7
01:11:20.745 : :8
01:15:19.952 : :1
Релиз от: & &
pb.wtf



Скачать Призраки через торрент https://a.radikal.ru/a03/2010/6c/968626bed5c8.jpg Скачать фильм Призраки через торрент бесплантно в хорошем качестве Описание: Эмили соглашается работать ночной сиделкой для одинокого старика, живущего в старинном доме в глухой местности. Однако, в ... 10 10 2
Торрент: Зарегистрирован [2020-10-03 13:52] · скачан: 40 раз
Статус: T временная
Размер: 1.42 GB
Как cкачать? Как скачать Призраки через торрент | UTorrent

% Раздел Тема Автор DL S | L
T Фильмы 2019-2020 [DVDrip, WEB-DLRip, HDrip] (DUB, MVO) [ 1.76 GB ] Призраки замка Маргам / The Haunting of Margam Castle [2020 WEB-DLRip-AVC] [MVO] [MUZOBOZ@] от MediaBit Lithuania Скачать
1 | 0


Последний раз редактировалось: Lithuania (2020-10-04 08:18), всего редактировалось 1 раз

28-11-2019 20:33  

Отключить всю рекламу на сайте


    Дорогой пользователь! Огромная просьба, поблагодарите релизера, оцените раздачу и оставьте свои комментарий, если Вы скачали Призраки через торрент бесплатно! Внесите свою лепту в развитие PiratBit!
    Комментировать посты могут только пользователи прошедшие не сложную регистрацию
    Показать сообщения:    

    Призраки через торрент
    Скачать бесплатно Призраки
    Призраки скачать торрент
    Призраки смотреть онлайн
    Cкачать фильм Призраки бесплатно
    Призраки скачать торрент в хорошем качестве
    Призраки смотреть онлайн бесплатно в хорошем качестве


    Вы не можете начинать темы
    Вы не можете отвечать на сообщения
    Вы не можете редактировать свои сообщения
    Вы не можете удалять свои сообщения
    Вы не можете голосовать в опросах
    Вы не можете прикреплять файлы к сообщениям
    Вы можете скачивать файлы