Ссылка на приватное зеркало нашего сайта всего за 1$. Внимание количество ограничено!!!

2 сезон

iTunes

1 сезон

1

2 сезон

2 сезон

iTunes

1 сезон

RePack

30

Новинка

ВАЖНО

ИГРА 18+

pack

RePack

MK11
pack

Забери бонус

RePack

jed

!!Акция!!

Alien_Rage

RePack

fifa19

RePack

Assassins Creed: Odyssey

RePack

NEED FOR SPEED™ PAYBACK

4 сезон

9 сезон

Бесстыжие 9 сезон

Все сериалы

все сериалы на PB.wtf

RePack

FAR CRY 5
  

Забытые сокровища / Forgotten Treasures (Lukas Ridgeston) [2020 г., Anal , Bareback, Big Dick, Blowjob, Oral, Rimming, Young Men, Twinks, WEB-DLRip, Оригинальный] pb.wtf

Забытые сокровища через торрент pb.wtf

Размер: 5.07 GB | Добавлен: 2 мес. назад | Торрент скачан:78 раз
Скачать  

03-10-2020 14:25 Забытые сокровища Скачать торрент  

Забытые сокровища / Forgotten Treasures
Год выпуска: 2020
Страна: Czech Republic Студия: Bel Ami
Жанр: Anal , Bareback, Big Dick, Blowjob, Oral, Rimming, Young Men, Twinks
Продолжительность: 01:57:13
Перевод: Оригинальный

Режиссер: Lukas Ridgeston

В ролях: Kris Evans, Ryan Kutcher, Dolph Lambert, Phillipe Gaudin, Kevin Warhol, Vadim Farrell, Zac DeHaan, Florian Nemec, Jason Clark, Luke Hamill, Dario Dolce, Gino Mosca, Antony Lorca, Roald Ekberg, Andre Boleyn, Dennis Mikkelsen

Описание: These Forgotten Treasures are the discovery of the decade! Come celebrate Bel Ami''s 25th anniversary with a multitude of magnificent models - including Dolph Lambert, Gino Mosca, Vadim Farrell, Phillipe Gaudin, Andre Boleyn, Kevin Warhol, Florian Nemec, Dario Dolce, Luke Hamill, Jason Clark, Zac DeHaan, Roald Ekberg, Antony Lorca, Dennis Mikkelsen, and co-cover stars Ryan Kutcher and Kris Evans - in seven astonishing bareback sex scenes from the acclaimed studio''s vaults - now available in a single collection for the very first time on DVD

Тип HD видео: 1080p
Формат: MP4
Видео кодек: H.264
Аудио кодек: AAC
Видео: H.264/AVC 1920x1080 30fps 6000 kbit/s
Аудио#1: AAC 44100Hz 2.0 chn 189 kbit/s
скриншот  
скриншот  
скриншот  


Общее
Полное имя : D:\torrent\novay zagruzka(dok)\BelAmi - Forgotten Treasures.mp4
Формат : MPEG-4
Профиль формата : Base Media / Version 2
Идентификатор кодека : mp42 (mp42/mp41)
Размер файла : 5,07 Гбайт
Продолжительность : 1 ч. 57 м.
Режим общего битрейта : Переменный
Общий поток : 6 194 Кбит/сек
Дата кодирования : UTC 2020-07-20 13:37:03
Дата пометки : UTC 2020-07-20 15:02:03
TIM : 00:00:00:00
TSC : 30
TSZ : 1

Видео
Идентификатор : 1
Формат : AVC
Формат/Информация : Advanced Video Codec
Профиль формата : Main@L4.2
Настройки формата : CABAC / 4 Ref Frames
Параметр CABAC формата : Да
Параметр RefFrames формата : 4 кадра
Идентификатор кодека : avc1
Идентификатор кодека/Информация : Advanced Video Coding
Продолжительность : 1 ч. 57 м.
Битрейт : 6 000 Кбит/сек
Ширина : 1 920 пикселей
Высота : 1 080 пикселей
Соотношение сторон : 16:9
Режим частоты кадров : Постоянный
Частота кадров : 30,000 кадров/сек
Цветовое пространство : YUV
Субдискретизация насыщенности : 4:2:0
Битовая глубина : 8 бит
Тип развёртки : Прогрессивная
Бит/(Пиксели*Кадры) : 0.096
Размер потока : 4,91 Гбайт (97%)
Язык : English
Дата кодирования : UTC 2020-07-20 13:37:04
Дата пометки : UTC 2020-07-20 13:37:04
Цветовой диапазон : Limited
Основные цвета : BT.709
Характеристики трансфера : BT.709
Коэффициенты матрицы : BT.709
Codec configuration box : avcC

Аудио
Идентификатор : 2
Формат : AAC LC
Формат/Информация : Advanced Audio Codec Low Complexity
Идентификатор кодека : mp4a-40-2
Продолжительность : 1 ч. 57 м.
Продолжительность оригинала : 1 ч. 57 м.
Вид битрейта : Переменный
Битрейт : 192 Кбит/сек
Максимальный битрейт : 295 Кбит/сек
Каналы : 2 канала
Channel layout : L R
Частота : 44,1 КГц
Частота кадров : 43,066 кадра/сек (1024 SPF)
Метод сжатия : С потерями
Размер потока : 159 Мбайт (3%)
Размер потока оригинала : 159 Мбайт (3%)
Язык : English
Дата кодирования : UTC 2020-07-20 13:37:04
Дата пометки : UTC 2020-07-20 13:37:04

pb.wtf



pack Скачать Забытые сокровища через торрент https://b.radikal.ru/b08/2010/fe/0aa5646d0863.jpg Скачать фильм Забытые сокровища через торрент бесплантно в хорошем качестве Описание: These Forgotten Treasures are the discovery of the decade! Come celebrate Bel Ami''s 25th anniversary with a multitude of ... 5.5 10 4
Info! Золотая раздача, скачанное не засчитывается.
Торрент: Зарегистрирован [2020-10-03 14:25] · скачан: 78 раз
Статус: √ проверено
Размер: 5.07 GB
Как cкачать? Как скачать Забытые сокровища через торрент | qTorrent



Последний раз редактировалось: jump88 (2020-10-04 09:49), всего редактировалось 3 раз(а)

28-11-2019 20:33  

Отключить всю рекламу на сайте

    Дорогой пользователь! Огромная просьба, поблагодарите релизера, оцените раздачу и оставьте свои комментарий, если Вы скачали Забытые сокровища через торрент бесплатно! Внесите свою лепту в развитие PiratBit!
    Комментировать посты могут только пользователи прошедшие не сложную регистрацию
    Показать сообщения:    

    Забытые сокровища через торрент
    Скачать бесплатно Забытые сокровища
    Забытые сокровища скачать торрент
    Забытые сокровища смотреть онлайн
    Cкачать фильм Забытые сокровища бесплатно
    Забытые сокровища скачать торрент в хорошем качестве
    Забытые сокровища смотреть онлайн бесплатно в хорошем качестве


    Вы не можете начинать темы
    Вы не можете отвечать на сообщения
    Вы не можете редактировать свои сообщения
    Вы не можете удалять свои сообщения
    Вы не можете голосовать в опросах
    Вы не можете прикреплять файлы к сообщениям
    Вы можете скачивать файлы