2 сезон

iTunes

MVO

1

2 сезон

iTunes

iTunes

1 сезон

RePack

30

Новинка

ВАЖНО

ИГРА 18+

pack

RePack

MK11
pack

Легкие деньги

RePack

jed

RePack

fifa19

RePack

RDR2

RePack

NEED FOR SPEED™ PAYBACK

4 сезон

9 сезон

Бесстыжие 9 сезон

Все сериалы

все сериалы на PB.wtf

RePack

FAR CRY 5

Anonymous, доброй ночи, мы не успеваем собрать деньги на оплату серверов за декабрь и январь, помогите нам пожалуйста в это трудное время. В качестве благодарности мы отключим Вам всю рекламу на сайте (укажите свой ник в строку Ваше имя)!

×
  
Magnet ссылка

Корпорация / Corporate (Николас Силхол) [2017, триллер, драма, WEB-DLRip-AVC] [MVO] [AlphaProject] от MediaBit pb.wtf

Корпорация через торрент pb.wtf

Размер: 1.42 GB | Добавлен: 3 мес. 22 д. назад | Торрент скачан:71 раз
Скачать  

03-10-2020 16:49 Корпорация Скачать торрент  


Корпорация / Corporate
Информация о фильме:
Название: Корпорация
Оригинальное название: Corporate
Год выхода: 2017
Жанр: Триллер, драма
Режиссер: Николас Силхол
В ролях: Селин Саллетт, Ламбер Вильсон, Стефан Де Гродт, Виолэйн Фюмо, Элис де Ланкесэ, Камилла Жапи, Янник Шуара, Хайэм Зейтун, Арно Бедуэ, Чарли Энсон

Описание: Эмили, одна из менеджеров по персоналу в многонациональной компании Esen, недавно была принята на эту должность за свою безжалостность. Она умеет найти слова, чтобы убедить сотрудников уволиться по собственному желанию. Она выполняет свою задачу без моральных угрызений до того дня, пока один из сотрудников не кончает жизнь самоубийством, выпрыгнув из окна офиса. Эмили не только глубоко потрясена этой трагедией, но вскоре понимает, что высшее руководство компании хочет, чтобы она взяла всю вину на себя.

rating

Страна: Франция
Студия: Kazak Productions, Auvergne Rhône-Alpes Cinéma, Canal+
Продолжительность: 01:35:05
Перевод: Любительский (многоголосый, закадровый) - AlphaProject



Информация о файле:
Кодек: AVC
Формат: MKV
Качество: WEB-DLRip-AVC
Видео: MPEG-4 AVC, 1024x430 (2.40:1), 24.000 fps, 1946 kbps, 0.184
Аудио RU: AC3, 2 ch, 48 kHz, 192 kbps
Навигация по главам: Есть

x264 info: frame I:815 Avg QP:14.02 size: 62007
x264 info: frame P:34476 Avg QP:16.77 size: 21004
x264 info: frame B:101640 Avg QP:18.18 size: 6033
x264 info: consecutive B-frames: 1.7% 4.6% 5.1% 63.2% 7.6% 14.4% 1.2% 1.0% 0.3% 0.2% 0.3% 0.5%
============================================
General
Unique ID : 117088556630209412202723762798020589027 (0x58166F8C63A67DD306DBC108DD10F5E3)
Complete name : D:uTorrentРипы_от_wolf1245_MediaBit-Корпорация - Corporate (2017) from wolf1245 & MediaBit.mkv
Format : Matroska
Format version : Version 4
File size : 1.42 GiB
Duration : 1 h 35 min
Overall bit rate : 2 140 kb/s
Movie name : / Корпорация / Corporate (2017) from wolf1245 & MediaBit
Encoded date : UTC 2020-10-03 16:38:30
Writing application : mkvmerge v50.0.0 ('Awakenings') 64-bit
Writing library : libebml v1.4.0 + libmatroska v1.6.2
Attachments : Corporate
Video
ID : 1
Format : AVC
Format/Info : Advanced Video Codec
Format profile : High@L4.1
Format settings : CABAC / 11 Ref Frames
Format settings, CABAC : Yes
Format settings, Reference frames : 11 frames
Codec ID : V_MPEG4/ISO/AVC
Duration : 1 h 35 min
Bit rate : 1 946 kb/s
Width : 1 024 pixels
Height : 430 pixels
Display aspect ratio : 2.40:1
Frame rate mode : Constant
Frame rate : 24.000 FPS
Color space : YUV
Chroma subsampling : 4:2:0
Bit depth : 8 bits
Scan type : Progressive
Bits/(Pixel*Frame) : 0.184
Stream size : 1.29 GiB (91%)
Title : wolf1245 & MediaBit
Writing library : x264 core 157 r2958 57baac4
Encoding settings : cabac=1 / ref=11 / deblock=1:-3:-3 / analyse=0x3:0x133 / me=umh / subme=11 / psy=1 / psy_rd=1.00:0.06 / mixed_ref=1 / me_range=48 / chroma_me=1 / trellis=2 / 8x8dct=1 / cqm=0 / deadzone=21,11 / fast_pskip=0 / chroma_qp_offset=-3 / threads=10 / lookahead_threads=2 / sliced_threads=0 / nr=0 / decimate=0 / interlaced=0 / bluray_compat=0 / constrained_intra=0 / bframes=11 / b_pyramid=2 / b_adapt=2 / b_bias=0 / direct=3 / weightb=1 / open_gop=0 / weightp=2 / keyint=240 / keyint_min=24 / scenecut=40 / intra_refresh=0 / rc_lookahead=60 / rc=2pass / mbtree=0 / bitrate=1946 / ratetol=1.0 / qcomp=0.60 / qpmin=0 / qpmax=69 / qpstep=4 / cplxblur=20.0 / qblur=0.5 / vbv_maxrate=50000 / vbv_bufsize=62500 / nal_hrd=none / filler=0 / ip_ratio=1.40 / pb_ratio=1.30 / aq=1:1.00
Language : French
Default : Yes
Forced : No
Color range : Limited
Color primaries : BT.709
Transfer characteristics : BT.709
Matrix coefficients : BT.709
Audio
ID : 2
Format : AC-3
Format/Info : Audio Coding 3
Commercial name : Dolby Digital
Codec ID : A_AC3
Duration : 1 h 35 min
Bit rate mode : Constant
Bit rate : 192 kb/s
Channel(s) : 2 channels
Channel layout : L R
Sampling rate : 48.0 kHz
Frame rate : 31.250 FPS (1536 SPF)
Compression mode : Lossy
Stream size : 131 MiB (9%)
Title : MVO [AlphaProject] MediaBit
Language : Russian
Service kind : Complete Main
Default : Yes
Forced : No
Menu
00:00:00.000 : :1
00:09:35.000 : :2
00:18:48.958 : :3
00:28:12.124 : :4
00:36:11.332 : :5
00:45:52.623 : :6
00:55:59.123 : :7
01:07:43.581 : :8
01:16:48.496 : :9
01:24:15.162 : :10
01:31:29.078 : :11
Релиз от: & &
pb.wtf



Скачать Корпорация через торрент https://c.radikal.ru/c36/2010/db/761fa5e5fce2.jpg Скачать фильм Корпорация через торрент бесплантно в хорошем качестве Описание: Эмили, одна из менеджеров по персоналу в многонациональной компании Esen, недавно была принята на эту должность за свою ... 10 10 3
Торрент: Зарегистрирован [2020-10-03 16:49] · скачан: 71 раз
Статус: T временная
Размер: 1.42 GB
Как cкачать? Как скачать Корпорация через торрент | UTorrent



Последний раз редактировалось: Lithuania (2020-10-04 08:22), всего редактировалось 1 раз

28-11-2019 20:33  

Отключить всю рекламу на сайте

    Дорогой пользователь! Огромная просьба, поблагодарите релизера, оцените раздачу и оставьте свои комментарий, если Вы скачали Корпорация через торрент бесплатно! Внесите свою лепту в развитие PiratBit!
    Комментировать посты могут только пользователи прошедшие не сложную регистрацию
    Показать сообщения:    

    Корпорация через торрент
    Скачать бесплатно Корпорация
    Корпорация скачать торрент
    Корпорация смотреть онлайн
    Cкачать фильм Корпорация бесплатно
    Корпорация скачать торрент в хорошем качестве
    Корпорация смотреть онлайн бесплатно в хорошем качестве


    Вы не можете начинать темы
    Вы не можете отвечать на сообщения
    Вы не можете редактировать свои сообщения
    Вы не можете удалять свои сообщения
    Вы не можете голосовать в опросах
    Вы не можете прикреплять файлы к сообщениям
    Вы можете скачивать файлы