Доктор Стрэндж

Лицензия

Добыча

Дубляж

Дом дракона

1 сезон

Тор

Дубляж

В эфире

Дубляж

Там, где раки поют

MVO

Властелин колец

1 сезон

GLOBAL

pack

Рекомендуем

30

Пиратка

ВАЖНО

ВАЖНО

Ghostwire

Пиратка

jed

RePack

nioh2

RePack

RDR2

RePack

NEED FOR SPEED™ PAYBACK

RePack

скачать торрент

Кинопоиск HD

Острые козырьки 6 сезон

6 сезон

FAR CRY 6

RePack

скачать торрент

Лицензия

скачать торрент

MVO

1

1 сезон

скачать торрент

1 сезон

скачать торрент

Лицензия

  

Выбивая долги / The Tax Collector (Дэвид Эйр) [2020, Криминал, боевик, BD Remux 1080p] Дубляж [iTunes] +MVO [HDRezka]

Выбивая долги через торрент pb.wtf

Размер: 16.73 GB | Добавлен: 1 год 7 мес. назад | Торрент скачан:24 раза
Смотреть онлайн | Скачать   

03-10-2020 18:34 Выбивая долги Скачать торрент  

Выбивая долги | The Tax Collector
Год выпуска: 2020
Страна: США
Студия: Cedar Park Entertainment, Cross Creek Pictures, Faster Horse Pictures
Жанр: Криминал, боевик
Продолжительность: 01:35:15
Перевод(ы):
#1: Дублированный | iTunes
#2: Профессиональный (многоголосый) | HDRezka
Субтитры: Русские (Forced), английские

Режиссер: Дэвид Эйр

rating

В ролях: Бобби Сото, Синтия Кармона, Шайа ЛаБаф, Хосе Конехо Мартин, Шайенн Рэй Эрнандес, Кле Слоун, Ричард Мескита, Джордж Лопес, Брайан Мартин Ортега, Аалайя Лопес

Описание: Выбивая черный нал из должников, два коллектора перешли дорогу главе наркокартеля, практикующему шаманство. Спровоцировав конфликт между двумя бандами, который может обернуться кровавой бойней, коллекторы поставили под угрозу жизни своих семей.

Качество: BD Remux 1080p
Формат: MKV

Видео: MPEG-4 AVC, 1920x1080, 20.9 Mbit/s, 24.000 fps
Аудио #01: 48 kHz, AC3, 5.1, 384 Kbps | Дублированный | iTunes | RUS |
Аудио #02: 48 kHz, AC3, 5.1, 448 Kbps | Профессиональный многоголосый | HDRezka | RUS |
Аудио #03: 48 kHz, DTS-HD MA, 5.1, 3426 Kbps | Оригинал | ENG |
скриншот  скриншот  скриншот  скриншот  скриншот  

General
Unique ID : 122572273177837610176981104510964345351 (0x5C368FA5FC2CC22A91BAE02C62902A07)
Complete name : F:VideoThe.Tax.Collector.2020.D.MVO.BDREMUX.1080p.seleZen.mkv
Format : Matroska
Format version : Version 4
File size : 16.7 GiB
Duration : 1 h 35 min
Overall bit rate mode : Variable
Overall bit rate : 25.1 Mb/s
Movie name : The Tax Collector 2020 from seleZen
Encoded date : UTC 2021-04-25 01:49:02
Writing application : mkvmerge v55.0.0 ('Waiting For Space') 64-bit
Writing library : libebml v1.4.2 + libmatroska v1.6.4

Video
ID : 1
Format : AVC
Format/Info : Advanced Video Codec
Format profile : [email protected]
Format settings : CABAC / 4 Ref Frames
Format settings, CABAC : Yes
Format settings, Reference : 4 frames
Codec ID : V_MPEG4/ISO/AVC
Duration : 1 h 35 min
Bit rate mode : Variable
Bit rate : 20.9 Mb/s
Maximum bit rate : 36.0 Mb/s
Width : 1 920 pixels
Height : 1 080 pixels
Display aspect ratio : 16:9
Frame rate mode : Constant
Frame rate : 24.000 FPS
Color space : YUV
Chroma subsampling : 4:2:0
Bit depth : 8 bits
Scan type : Progressive
Bits/(Pixel*Frame) : 0.419
Stream size : 13.9 GiB (83%)
Language : English
Default : Yes
Forced : No

Audio #1
ID : 2
Format : AC-3
Format/Info : Audio Coding 3
Commercial name : Dolby Digital
Codec ID : A_AC3
Duration : 1 h 35 min
Bit rate mode : Constant
Bit rate : 384 kb/s
Channel(s) : 6 channels
Channel layout : L R C LFE Ls Rs
Sampling rate : 48.0 kHz
Frame rate : 31.250 FPS (1536 SPF)
Compression mode : Lossy
Stream size : 262 MiB (2%)
Title : Дубляж [iTunes]
Language : Russian
Service kind : Complete Main
Default : Yes
Forced : Yes

Audio #2
ID : 3
Format : AC-3
Format/Info : Audio Coding 3
Commercial name : Dolby Digital
Codec ID : A_AC3
Duration : 1 h 35 min
Bit rate mode : Constant
Bit rate : 448 kb/s
Channel(s) : 6 channels
Channel layout : L R C LFE Ls Rs
Sampling rate : 48.0 kHz
Frame rate : 31.250 FPS (1536 SPF)
Compression mode : Lossy
Stream size : 305 MiB (2%)
Title : MVO [HDRezka]
Language : Russian
Service kind : Complete Main
Default : No
Forced : No

Audio #3
ID : 4
Format : DTS XLL
Format/Info : Digital Theater Systems
Commercial name : DTS-HD Master Audio
Codec ID : A_DTS
Duration : 1 h 35 min
Bit rate mode : Variable
Bit rate : 3 426 kb/s
Channel(s) : 6 channels
Channel layout : C L R Ls Rs LFE
Sampling rate : 48.0 kHz
Frame rate : 93.750 FPS (512 SPF)
Bit depth : 24 bits
Compression mode : Lossless
Stream size : 2.28 GiB (14%)
Title : Original
Language : English
Default : No
Forced : No

Text #1
ID : 5
Format : UTF-8
Codec ID : S_TEXT/UTF8
Codec ID/Info : UTF-8 Plain Text
Duration : 1 h 24 min
Bit rate : 5 b/s
Count of elements : 93
Stream size : 3.64 KiB (0%)
Title : Forced [HDRezka]
Language : Russian
Default : No
Forced : No

Text #2
ID : 6
Format : UTF-8
Codec ID : S_TEXT/UTF8
Codec ID/Info : UTF-8 Plain Text
Duration : 1 h 28 min
Bit rate : 60 b/s
Count of elements : 1278
Stream size : 39.1 KiB (0%)
Title : Full
Language : English
Default : No
Forced : No

Menu
00:00:00.000 : en:Глава 01
00:12:39.625 : en:Глава 02
00:25:28.042 : en:Глава 03
00:36:20.542 : en:Глава 04
00:48:56.083 : en:Глава 05
01:00:03.042 : en:Глава 06
01:15:27.833 : en:Глава 07
01:30:18.792 : en:Глава 08




Скачать Выбивая долги через торрент https://i112.fastpic.ru/big/2020/0813/0b/e7c576a21851d7458330b1561005ca0b.jpg Скачать, смотреть онлайн Выбивая долги бесплантно в хорошем качестве Описание: Выбивая черный нал из должников, два коллектора перешли дорогу главе наркокартеля, практикующему шаманство. Спровоцировав ... 8.5 10 4
Торрент: Зарегистрирован [2021-04-25 03:27] · скачан: 24 раз
Статус: √ проверено
Размер: 16.73 GB
Как cкачать? Как скачать Выбивая долги через торрент | UTorrent

% Раздел Тема Автор DL S | L
Фильмы 2019-2020 [DVDrip, WEB-DLRip, HDrip] (DUB, MVO) [ 720 MB ] Выбивая долги / The Tax Collector | iTunes" | HDRip, Дубляж "iTunes" coc900 Скачать
1 | 0
Фильмы [HD 720p, 1080p] (Хороший звук DUB, MVO) [ 8.59 GB ] Выбивая долги / The Tax Collector | iTunes | 1080p bober100 Скачать
1 | 0
Фильмы 2019-2020 [DVDrip, WEB-DLRip, HDrip] (DUB, MVO) [ 2.43 GB ] Выбивая долги / The Tax Collector | iTunes | BDRip-AVC bober100 Скачать
1 | 0
Фильмы 2019-2020 [DVDrip, WEB-DLRip, HDrip] (DUB, MVO) [ 1.41 GB ] Выбивая долги / The Tax Collector | iTunes | BDRip-AVC bober100 Скачать
1 | 0
Фильмы [HD 720p, 1080p] (Хороший звук DUB, MVO) [ 4.81 GB ] Выбивая долги / The Tax Collector | iTunes | 720p bober100 Скачать
1 | 0
Фильмы 2019-2020 [DVDrip, WEB-DLRip, HDrip] (DUB, MVO) [ 744 MB ] Выбивая долги / The Tax Collector | HDRezka Studio | DLRip bober100 Скачать
1 | 0
Фильмы 2019-2020 [DVDrip, WEB-DLRip, HDrip] (DUB, MVO) [ 1.46 GB ] Выбивая долги / The Tax Collector | HDRezka Studio | BDRip bober100 Скачать
1 | 0

28-11-2019 20:33  


Отключить вcю реклaмy на сайте, в т.ч. и в плеере онлайн просмотра!

    Дорогой пользователь! Огромная просьба, поблагодарите релизера, оцените раздачу и оставьте свои комментарий, если Вы скачали Выбивая долги через торрент бесплатно!!
    Комментировать посты могут только пользователи прошедшие не сложную регистрацию
    Показать сообщения:    


    Выбивая долги через торрент
    Скачать бесплатно Выбивая долги
    Выбивая долги скачать торрент
    Выбивая долги смотреть онлайн
    Cкачать фильм Выбивая долги бесплатно
    Выбивая долги скачать торрент в хорошем качестве
    Выбивая долги смотреть онлайн бесплатно в хорошем качестве
    Вы не можете начинать темы
    Вы не можете отвечать на сообщения
    Вы не можете редактировать свои сообщения
    Вы не можете удалять свои сообщения
    Вы не можете голосовать в опросах
    Вы не можете прикреплять файлы к сообщениям
    Вы можете скачивать файлы
    Выбивая долги / The Tax Collector [2020, Криминал, боевик, BD Remux 1080p] Дубляж [iTunes] +MVO [HDRezka] смотреть онлайн, скачать торрент picoco.icu