Ссылка на приватное зеркало нашего сайта всего за 1$. Внимание количество ограничено!!!

2 сезон

iTunes

1 сезон

1

2 сезон

2 сезон

iTunes

1 сезон

RePack

30

Ultimate

ВАЖНО

ИГРА 18+

pack

RePack

MK11
pack

Забери бонус

RePack

jed

!!Акция!!

Alien_Rage

RePack

fifa19

RePack

Assassins Creed: Odyssey

RePack

NEED FOR SPEED™ PAYBACK

4 сезон

9 сезон

Бесстыжие 9 сезон

Все сериалы

все сериалы на PB.wtf

RePack

FAR CRY 5
  

Где-то во времени / The Fare (Дэвид Хэмилтон) [2018, Триллер, мелодрама, детектив, BD Remux 1080p] DUB [iTunes] pb.wtf

Где-то во времени через торрент pb.wtf

Размер: 16.56 GB | Добавлен: 1 мес. 24 д. назад | Торрент скачан:26 раз
Скачать  

04-10-2020 19:19 Где-то во времени Скачать торрент  

Где-то во времени | The Fare
Год выпуска: 2018
Страна: США
Студия: 501 Pictures, Public Displays of Affection, Grady Film
Жанр: Триллер, мелодрама, детектив
Продолжительность: 01:22:03
Перевод: Дублированный | iTunes
Субтитры: Английские

Режиссер: Дэвид Хэмилтон

rating

В ролях: Джино Энтони Песи, Бринна Келли, Джейсон Стюарт, Джон Джейкобс, Мэтт Фонтана, Дж.К. Бэйкер, Джефф Блум, Стивен Джи, Дэвид Миделл, Сара Мур

Описание: Очаровательная пассажирка по имени Пенни садится в такси к Харрису. Машина движется по безлюдной темной трассе, и таксист начинает беседу с девушкой. Внезапно она исчезает с заднего сиденья автомобиля, не оставив и следа. Харрис сбрасывает счетчик километров… и перемещается во времени назад, в тот самый момент, когда таинственная пассажирка открывает дверь машины. Харрис и Пенни оказываются во временной ловушке, но эта бесконечная поездка снимет покров с тайн и изменит их жизни навсегда.

Качество: BD Remux 1080p
Формат: MKV

Видео: MPEG-4 AVC, 1920x1080, 25.0 Mbit/s, 23.976 fps
Аудио #01: 48 kHz, AC3, 5.1, 384 Kbps | iTunes | RUS |
Аудио #02: 48 kHz, DTS-HD MA, 5.1, 3516 Kbps | Оригинал | ENG |
скриншот  скриншот  скриншот  скриншот  скриншот  

General
Unique ID : 157420786038459846324633952471244544373 (0x766E23FC6600528F5408993A17531975)
Complete name : D:Video111The.Fare.2018.BDREMUX.1080p.seleZen.mkv
Format : Matroska
Format version : Version 4
File size : 16.6 GiB
Duration : 1 h 22 min
Overall bit rate mode : Variable
Overall bit rate : 28.9 Mb/s
Movie name : The Fare 2018 from селезень
Encoded date : UTC 2020-10-04 19:05:48
Writing application : mkvmerge v40.0.0 ('Old Town Road + Pony') 64-bit
Writing library : libebml v1.3.9 + libmatroska v1.5.2

Video
ID : 1
Format : AVC
Format/Info : Advanced Video Codec
Format profile : High@L4.1
Format settings : CABAC / 4 Ref Frames
Format settings, CABAC : Yes
Format settings, Reference : 4 frames
Codec ID : V_MPEG4/ISO/AVC
Duration : 1 h 22 min
Bit rate mode : Variable
Bit rate : 25.0 Mb/s
Maximum bit rate : 32.0 Mb/s
Width : 1 920 pixels
Height : 1 080 pixels
Display aspect ratio : 16:9
Frame rate mode : Constant
Frame rate : 23.976 (24000/1001) FPS
Standard : NTSC
Color space : YUV
Chroma subsampling : 4:2:0
Bit depth : 8 bits
Scan type : Progressive
Bits/(Pixel*Frame) : 0.503
Stream size : 14.3 GiB (86%)
Language : German
Default : Yes
Forced : No
Color range : Limited
Color primaries : BT.709
Transfer characteristics : BT.709
Matrix coefficients : BT.709

Audio #1
ID : 2
Format : AC-3
Format/Info : Audio Coding 3
Commercial name : Dolby Digital
Codec ID : A_AC3
Duration : 1 h 22 min
Bit rate mode : Constant
Bit rate : 384 kb/s
Channel(s) : 6 channels
Channel layout : L R C LFE Ls Rs
Sampling rate : 48.0 kHz
Frame rate : 31.250 FPS (1536 SPF)
Compression mode : Lossy
Stream size : 225 MiB (1%)
Title : iTunes
Language : Russian
Service kind : Complete Main
Default : Yes
Forced : Yes

Audio #2
ID : 3
Format : DTS XLL
Format/Info : Digital Theater Systems
Commercial name : DTS-HD Master Audio
Codec ID : A_DTS
Duration : 1 h 22 min
Bit rate mode : Variable
Bit rate : 3 516 kb/s
Channel(s) : 6 channels
Channel layout : C L R Ls Rs LFE
Sampling rate : 48.0 kHz
Frame rate : 93.750 FPS (512 SPF)
Bit depth : 24 bits
Compression mode : Lossless
Stream size : 2.01 GiB (12%)
Title : Original
Language : English
Default : No
Forced : No

Text
ID : 4
Format : UTF-8
Codec ID : S_TEXT/UTF8
Codec ID/Info : UTF-8 Plain Text
Duration : 1 h 19 min
Bit rate : 62 b/s
Count of elements : 1433
Stream size : 36.4 KiB (0%)
Title : SDH
Language : English
Default : No
Forced : No

Menu
00:00:00.000 : de:Глава 01
00:09:45.752 : de:Глава 02
00:19:13.319 : de:Глава 03
00:29:56.837 : de:Глава 04
00:39:36.666 : de:Глава 05
00:49:54.909 : de:Глава 06
00:59:28.273 : de:Глава 07
01:09:44.347 : de:Глава 08
01:19:31.058 : de:Глава 09

pb.wtf



Скачать Где-то во времени через торрент https://i114.fastpic.ru/big/2020/1004/59/ddf62e66c2a40a000ecda104d95c1059.jpg Скачать фильм Где-то во времени через торрент бесплантно в хорошем качестве Описание: Очаровательная пассажирка по имени Пенни садится в такси к Харрису. Машина движется по безлюдной темной трассе, и таксист ... 10 10 4
Торрент: Зарегистрирован [2020-10-04 19:19] · скачан: 26 раз
Статус: √ проверено
Размер: 16.56 GB
Как cкачать? Как скачать Где-то во времени через торрент | qTorrent

% Раздел Тема Автор DL S | L
Фильмы [HD 720p, 1080p] (Хороший звук DUB, MVO) [ 7.08 GB ] Где-то во времени / The Fare [2018 BDRip 1080p] bober100 Скачать
7 | 0
Фильмы 2018 [DVDrip, WEB-DLRip, HDrip] (DUB, MVO) [ 1.42 GB ] Где-то во времени / The Fare [2018 BDRip] - Twi7ter Скачать
20 | 0
Фильмы 2018 [DVDrip, WEB-DLRip, HDrip] (DUB, MVO) [ 744 MB ] Где-то во времени / The Fare [2018 HDRip] bober100 Скачать
3 | 0
Фильмы [HD 720p, 1080p] (Хороший звук DUB, MVO) [ 3.53 GB ] Где-то во времени / The Fare [2018 BDRip 720p] bober100 Скачать
3 | 0
Фильмы (WEB-DL 720p, 1080p) [ 2.84 GB ] Где-то во времени / The Fare [2018 WEB-DL 1080p] bober100 Скачать
2 | 0
Фильмы 2018 [DVDrip, WEB-DLRip, HDrip] (DUB, MVO) [ 1.38 GB ] Где-то во времени / The Fare [2018 BDRip] bober100 Скачать
2 | 0

28-11-2019 20:33  

Отключить всю рекламу на сайте

    Дорогой пользователь! Огромная просьба, поблагодарите релизера, оцените раздачу и оставьте свои комментарий, если Вы скачали Где-то во времени через торрент бесплатно! Внесите свою лепту в развитие PiratBit!
    Комментировать посты могут только пользователи прошедшие не сложную регистрацию
    Показать сообщения:    

    Где-то во времени через торрент
    Скачать бесплатно Где-то во времени
    Где-то во времени скачать торрент
    Где-то во времени смотреть онлайн
    Cкачать фильм Где-то во времени бесплатно
    Где-то во времени скачать торрент в хорошем качестве
    Где-то во времени смотреть онлайн бесплатно в хорошем качестве


    Вы не можете начинать темы
    Вы не можете отвечать на сообщения
    Вы не можете редактировать свои сообщения
    Вы не можете удалять свои сообщения
    Вы не можете голосовать в опросах
    Вы не можете прикреплять файлы к сообщениям
    Вы можете скачивать файлы