Ссылка на приватное зеркало нашего сайта всего за 1$. Внимание количество ограничено!!!

2 сезон

iTunes

1 сезон

1

iTunes

iTunes

iTunes

1 сезон

RePack

30

ИГРА 18+

pack

ВАЖНО

!!Акция!!

Alien_RageХит недели

RePack

MK11
pack

Забери бонус

RePack

jed

!!Акция!!

Alien_Rage

RePack

fifa19

RePack

Assassins Creed: Odyssey

RePack

NEED FOR SPEED™ PAYBACK

4 сезон

9 сезон

Бесстыжие 9 сезон

Все сериалы

все сериалы на PB.wtf

RePack

FAR CRY 5
  

Тилли и пожарная повозка / Tilly and the Fire Engines (Левин Фитцхеймен) [1911, молодежная комедия, DVDRip] pb.wtf

Тилли и пожарная повозка через торрент pb.wtf

Размер: 32 MB | Добавлен: 18 д. назад | Торрент скачан:3 раза
Скачать  

04-10-2020 19:54 Тилли и пожарная повозка Скачать торрент  

Тилли и пожарная повозка / Tilly and the Fire Engines

Страна: Великобритания
Жанр: молодежная комедия
Год выпуска: 1911
Продолжительность: 00:02:44

Перевод: Не требуется. Нет ни одного интертитра.
Субтитры: нет
Оригинальная аудиодорожка: музыкальное сопровождение

Режиссер: Левин Фитцхеймен / Lewin Fitzhamon

В ролях: Альма Тейлор, Крисси Уайт, Фрэнк Дэнтон

Описание: Вот примерно отсюда начинался жанр молодежной комедии.

Это – один из 18 фильмов, снятых о приключениях двух подружек, хулиганок и сорванцов, шатенки Тилли и блондинки Салли.
Двум подружкам Тилли и Салли опять неймется, опять хочется приключений. В этот раз они угнали пожарную повозку и решили применить ее в действии…
Эти фильмы были очень популярны, актрисы игравшие главные роли были звездами у себя на родине. В 1915 г. шатенка Альма Тейлор, заняла первое место в опросе на звание лучшего актера, изящно отодвинув на второе место… Чарли Чаплина.
К сожалению фильм сохранился не полностью, отсутствует первая часть.

Если говорить о типе пожарной повозки, то героини угнали повозку, у которой не было своей бочки с водой и не было системы прокачки воды с водоема. Она предназначалась для использования воды из водопровода (кроме рукавов и ствола была укомплектована инструментами и приспособлениями для подключения к водопроводу). В дореволюционной России такой тип пожарных повозок назывался трубный ход. (в отличие от бочечного хода, укомплектованной рукавами и стволами, а также бочкой для воды и оснащенной двуручным насосом для прокачки воды с бочки или с водоема).

Сэмпл: http://multi-up.com/1268527

Качество видео: DVDRip
Формат видео: AVI

Видео: 640x480 AVC, 14 fps, 1487 kbps
Аудио: 48 kHz, MP3, 2 ch, 128 kbps
Общее
Формат : AVI
Формат/Информация : Audio Video Interleave
Размер файла : 31,7 Мбайт
Продолжительность : 2 м. 44 с.
Общий поток : 1621 Кбит/сек
Программа кодирования : VirtualDubMod 1.5.10.2 (build 2540/release)
Библиотека кодирования : VirtualDubMod build 2540/release

Видео
Идентификатор : 0
Формат : MPEG-4 Visual
Профиль формата : Advanced Simple@L5
Настройки формата : BVOP2
Параметр BVOP формата : 2
Параметр QPel формата : Нет
Параметр GMC формата : Без точки перехода
Параметр матрицы формата : Default (MPEG)
Идентификатор кодека : XVID
Идентификатор кодека/Подсказка : XviD
Продолжительность : 2 м. 44 с.
Битрейт : 1487 Кбит/сек
Ширина : 640 пикселей
Высота : 480 пикселей
Соотношение сторон : 4:3
Частота кадров : 14,000 кадров/сек
Цветовое пространство : YUV
Субдискретизация насыщенности : 4:2:0
Битовая глубина : 8 бит
Тип развёртки : Прогрессивная
Метод сжатия : С потерями
Бит/(Пиксели*Кадры) : 0.346
Размер потока : 29,1 Мбайт (92%)
Библиотека кодирования : XviD 1.2.1 (UTC 2008-12-04)

Аудио
Идентификатор : 1
Формат : MPEG Audio
Версия формата : Version 1
Профиль формата : Layer 3
Настройки формата : Joint stereo / MS Stereo
Идентификатор кодека : 55
Идентификатор кодека/Подсказка : MP3
Продолжительность : 2 м. 43 с.
Вид битрейта : Постоянный
Битрейт : 128 Кбит/сек
Каналы : 2 канала
Частота : 48,0 КГц
Метод сжатия : С потерями
Размер потока : 2,50 Мбайт (8%)
Выравнивание : Соединение по промежуткам
Продолжительность промежутка : 72 мс. (1,00 видеокадр)
Время предзагрузки промежутка : 504 мс
pb.wtf



Скачать Тилли и пожарная повозка через торрент https://i114.fastpic.ru/big/2020/1004/da/b825842eadba3bab5385a430be88d4da.jpg Скачать фильм Тилли и пожарная повозка через торрент бесплантно в хорошем качестве Описание: Вот примерно отсюда начинался жанр молодежной комедии.Это – один из 18 фильмов, снятых о приключениях двух подружек, хулиганок и ... 10 10 2
Торрент: Зарегистрирован [2020-10-04 19:54] · скачан: 3 раз
Статус: T временная
Размер: 32 MB
Как cкачать? Как скачать Тилли и пожарная повозка через торрент | qTorrent

28-11-2019 20:33  

Отключить всю рекламу на сайте

    Дорогой пользователь! Огромная просьба, поблагодарите релизера, оцените раздачу и оставьте свои комментарий, если Вы скачали Тилли и пожарная повозка через торрент бесплатно! Внесите свою лепту в развитие PiratBit!
    Комментировать посты могут только пользователи прошедшие не сложную регистрацию
    Показать сообщения:    

    Тилли и пожарная повозка через торрент
    Скачать бесплатно Тилли и пожарная повозка
    Тилли и пожарная повозка скачать торрент
    Тилли и пожарная повозка смотреть онлайн
    Cкачать фильм Тилли и пожарная повозка бесплатно
    Тилли и пожарная повозка скачать торрент в хорошем качестве
    Тилли и пожарная повозка смотреть онлайн бесплатно в хорошем качестве


    Вы не можете начинать темы
    Вы не можете отвечать на сообщения
    Вы не можете редактировать свои сообщения
    Вы не можете удалять свои сообщения
    Вы не можете голосовать в опросах
    Вы не можете прикреплять файлы к сообщениям
    Вы можете скачивать файлы