Ссылка на приватное зеркало нашего сайта всего за 1$. Внимание количество ограничено!!!

2 сезон

iTunes

1 сезон

1

iTunes

iTunes

iTunes

1 сезон

RePack

30

ИГРА 18+

pack

ВАЖНО

!!Акция!!

Alien_RageХит недели

RePack

MK11
pack

Забери бонус

RePack

jed

!!Акция!!

Alien_Rage

RePack

fifa19

RePack

Assassins Creed: Odyssey

RePack

NEED FOR SPEED™ PAYBACK

4 сезон

9 сезон

Бесстыжие 9 сезон

Все сериалы

все сериалы на PB.wtf

RePack

FAR CRY 5
  

Ходячие мертвецы: Мир за пределами / The Walking Dead: World Beyond / Сезон: 1 / Серии: 1-3 из 10 (Магнус Мартенс, Дэн Лью, Джордан Вот-Робертс) [2020, ужасы, фантастика, драма, WEB-DL 720p] [DVO] (IdeaFilm) pb.wtf

Ходячие мертвецы: Мир за пределами через торрент pb.wtf

Раздают: 8 [ 0 KB/s ] Качают: 2 [ 0 KB/s ]
Размер: 5.28 GB | Добавлен: 5 д. назад | Торрент скачан:15 раз
Скачать  

05-10-2020 07:57 Ходячие мертвецы: Мир за пределами Скачать торрент  


Ходячие мертвецы: Мир за пределами / The Walking Dead: World Beyond
Год выпуска: 2020
Страна: США
Жанр: ужасы, фантастика, драма
Продолжительность: ~00:52:00
Перевод: Любительский (двухголосый закадровый) | IdeaFilm
Режиссёры: Магнус Мартенс, Дэн Лью, Джордан Вот-Робертс
В ролях: Аннет Махендру, Алайя Ройял, Нико Торторелла, Джо Холт, Аарон Снайдер, Николас Канту, Кристина Браудер, Саманта Лоррейн, Джелани Алладин, Кристина Брукато, Пол Д’Илайа, Джулия Ормонд
Описание: Рассказ о жизни первого поколения, выросшего в захваченном зомби мире. Группа подростков отправится в путешествие, связанное с исчезновением Рика Граймса.
rating

Качество: WEB-DL 720p
Контейнер: MKV
Видео: 1280x720, 24 fps, MPEG-4 AVC, ~5387 kbps, 0.244 bits/pixel
Аудио Rus: 48 kHz, AC3, 2/0 (L,R) ch, 192 kbps | IdeaFilm
Аудио Eng: 48 kHz, E-AC3, 3/2 (L,C,R,l,r) + LFE ch, 640.00 kbps
Субтитры: Русские (Full), Английские (Full, SDH)
Реклама: Отсутствует
Очистка от рекламы, работа со звуком и субтитрами: ad3wal3

General
Unique ID : 233449419594159953005455746787986631184 (0xAFA0B9076E0E02E2AB0F47D0130BEA10)
Complete name : G:\The.Walking.Dead.World.Beyond.S01E01.Brave.AMZN.WEB-DL.720p.IdeaFilm.-ad3wal3.mkv
Format : Matroska
Format version : Version 4
File size : 2.28 GiB
Duration : 52 min 24 s
Overall bit rate : 6 222 kb/s
Movie name : Ходячие мертвецы: Мир за пределами / The Walking Dead: World Beyond
Encoded date : UTC 2020-10-04 13:07:19
Writing application : mkvmerge v8.3.0 ('Over the Horizon') 32bit
Writing library : libebml v1.3.1 + libmatroska v1.4.2
Attachments : poster.jpg

Video
ID : 1
Format : AVC
Format/Info : Advanced Video Codec
Format profile : High@L3.1
Format settings : CABAC / 4 Ref Frames
Format settings, CABAC : Yes
Format settings, Reference frames : 4 frames
Codec ID : V_MPEG4/ISO/AVC
Duration : 52 min 24 s
Bit rate mode : Constant
Bit rate : 5 387 kb/s
Nominal bit rate : 6 000 kb/s
Width : 1 280 pixels
Height : 720 pixels
Display aspect ratio : 16:9
Frame rate mode : Constant
Frame rate : 24.000 FPS
Color space : YUV
Chroma subsampling : 4:2:0
Bit depth : 8 bits
Scan type : Progressive
Bits/(Pixel*Frame) : 0.244
Stream size : 1.97 GiB (87%)
Language : English
Default : Yes
Forced : No
Color range : Limited
Color primaries : BT.709
Transfer characteristics : BT.709
Matrix coefficients : BT.709

Audio #1
ID : 2
Format : AC-3
Format/Info : Audio Coding 3
Commercial name : Dolby Digital
Codec ID : A_AC3
Duration : 52 min 24 s
Bit rate mode : Constant
Bit rate : 192 kb/s
Channel(s) : 2 channels
Channel layout : L R
Sampling rate : 48.0 kHz
Frame rate : 31.250 FPS (1536 SPF)
Compression mode : Lossy
Delay relative to video : -83 ms
Stream size : 72.0 MiB (3%)
Title : IdeaFilm
Language : Russian
Service kind : Complete Main
Default : Yes
Forced : No

Audio #2
ID : 3
Format : E-AC-3
Format/Info : Enhanced AC-3
Commercial name : Dolby Digital Plus
Codec ID : A_EAC3
Duration : 52 min 24 s
Bit rate mode : Constant
Bit rate : 640 kb/s
Channel(s) : 6 channels
Channel layout : L R C LFE Ls Rs
Sampling rate : 48.0 kHz
Frame rate : 31.250 FPS (1536 SPF)
Compression mode : Lossy
Delay relative to video : -83 ms
Stream size : 240 MiB (10%)
Title : English
Language : English
Service kind : Complete Main
Default : No
Forced : No

Text #1
ID : 4
Format : UTF-8
Codec ID : S_TEXT/UTF8
Codec ID/Info : UTF-8 Plain Text
Duration : 51 min 5 s
Bit rate : 92 b/s
Count of elements : 764
Stream size : 34.7 KiB (0%)
Language : Russian
Default : No
Forced : No

Text #2
ID : 5
Format : UTF-8
Codec ID : S_TEXT/UTF8
Codec ID/Info : UTF-8 Plain Text
Duration : 52 min 18 s
Bit rate : 65 b/s
Count of elements : 956
Stream size : 25.2 KiB (0%)
Title : English
Language : English
Default : No
Forced : No

Text #3
ID : 6
Format : UTF-8
Codec ID : S_TEXT/UTF8
Codec ID/Info : UTF-8 Plain Text
Duration : 52 min 20 s
Bit rate : 69 b/s
Count of elements : 1030
Stream size : 26.6 KiB (0%)
Title : English [SDH]
Language : English
Default : No
Forced : No

скриншот  скриншот  скриншот  

Внимание! Раздача ведётся путём добавления новых серий; при каждом добавлении создаётся новый торрент. Чтобы начать докачку новой серии, пользователям необходимо сделать следующее:
(1) остановить скачивание,
(2) удалить старый торрент у себя из клиента (старые серии удалять не надо),
(3) скачать новый торрент и запустить его у себя в клиенте вместо старого, при этом указать клиенту путь в старую папку куда и должно происходить скачивание новых серий.

Ваш клиент при этом должен произвести хеширование (проверку) старой папки (если не производит сам - помогите ему сделать это), и будет докачивать только те серии которых у вас ещё нет. Старые серии при этом не удаляются, а продолжают раздаваться!

Eсли вы уже удалили старые серии, то предотвратить повторную закачку старых серий можно, отжав галочку в соответствующих местах при запуске нового торрента. По возможности, желательно не удалять старые серии как можно дольше чтобы релизёр не столько продолжал раздавать старые серии, а смог сконцентрироваться на новых.
pb.wtf



Скачать Ходячие мертвецы: Мир за пределами через торрент https://i114.fastpic.ru/big/2020/1004/bc/403ec67f7af97f4306bb558dfdc404bc.jpg Скачать фильм Ходячие мертвецы: Мир за пределами через торрент бесплантно в хорошем качестве Описание: Рассказ о жизни первого поколения, выросшего в захваченном зомби мире. Группа подростков отправится в путешествие, связанное с ... 10 10 5
Торрент: Зарегистрирован [2020-10-17 12:10] · скачан: 15 раз
Статус: √ проверено
Размер: 5.28 GB
Как cкачать? Как скачать Ходячие мертвецы: Мир за пределами через торрент | qTorrent

% Раздел Тема Автор DL S | L
Ходячие мертвецы (The Walking Dead) [ 12.45 GB ] Ходячие мертвецы: Мир за пределами / The Walking Dead: World Beyond / Сезон: 1 / Серии: 1-3 из 10 [2020 WEB-DL 1080p] [MVO] killermax2013 Скачать
3 | 0


Последний раз редактировалось: killermax2013 (2020-10-17 12:10), всего редактировалось 2 раз(а)

28-11-2019 20:33  

Отключить всю рекламу на сайте

05-10-2020 13:47 Ходячие мертвецы: Мир за пределами Скачать торрент  

Всё высосут из темы.pb.wtf



05-10-2020 17:34 Ходячие мертвецы: Мир за пределами Скачать торрент  

жесть, сколько ж можно несчастных мертвецов насиловатьpb.wtf



17-10-2020 19:53 Ходячие мертвецы: Мир за пределами Скачать торрент  

Бросил смотреть на сезоне 7-8м, ну а уж эту дичь не намерен смотреть вообще)pb.wtf



    Дорогой пользователь! Огромная просьба, поблагодарите релизера, оцените раздачу и оставьте свои комментарий, если Вы скачали Ходячие мертвецы: Мир за пределами через торрент бесплатно! Внесите свою лепту в развитие PiratBit!
    Комментировать посты могут только пользователи прошедшие не сложную регистрацию
    Показать сообщения:    

    Ходячие мертвецы: Мир за пределами через торрент
    Скачать бесплатно Ходячие мертвецы: Мир за пределами
    Ходячие мертвецы: Мир за пределами скачать торрент
    Ходячие мертвецы: Мир за пределами смотреть онлайн
    Cкачать фильм Ходячие мертвецы: Мир за пределами бесплатно
    Ходячие мертвецы: Мир за пределами скачать торрент в хорошем качестве
    Ходячие мертвецы: Мир за пределами смотреть онлайн бесплатно в хорошем качестве


    Вы не можете начинать темы
    Вы не можете отвечать на сообщения
    Вы не можете редактировать свои сообщения
    Вы не можете удалять свои сообщения
    Вы не можете голосовать в опросах
    Вы не можете прикреплять файлы к сообщениям
    Вы можете скачивать файлы