Ссылка на приватное зеркало нашего сайта всего за 1$. Внимание количество ограничено!!!

2 сезон

iTunes

1 сезон

1

iTunes

iTunes

iTunes

1 сезон

RePack

30

ИГРА 18+

pack

ВАЖНО

!!Акция!!

Alien_RageХит недели

RePack

MK11
pack

Забери бонус

RePack

jed

!!Акция!!

Alien_Rage

RePack

fifa19

RePack

Assassins Creed: Odyssey

RePack

NEED FOR SPEED™ PAYBACK

4 сезон

9 сезон

Бесстыжие 9 сезон

Все сериалы

все сериалы на PB.wtf

RePack

FAR CRY 5
  

Территория / Сезон: 1 / Серии: 1-8 из 8 (Вано Бурдули) [2019, Детектив, драма, WEBRip] pb.wtf

Территория через торрент pb.wtf

Раздают: 6 [ 162 KB/s ]
Размер: 5.28 GB | Добавлен: 22 д. назад | Торрент скачан:111 раз
Скачать  

06-10-2020 06:40 Территория Скачать торрент  

Территория
Год выпуска: 2019
Страна: Россия
Выпущено: Среда
Жанр: Детектив, драма
Продолжительность: ~ 00:52:00
Субтитры: отсутствуют

Режиссер: Вано Бурдули



В ролях: Кирилл Пирогов, Пётр Фёдоров, Светлана Смирнова-Марцинкевич, Игнат Акрачков, Виктор Цекало, Игорь Жижикин, Янина Мелехова, Евдокия Лаврухина, Филипп Яицкий, Игорь Черневич, Роман Маякин

Описание: Живописные окрестности средней полосы России: лес, река, люди, которые давно и хорошо знают друг друга… Довольно неожиданное место для череды странных убийств, беспредельных по своей жестокости и дерзости. Причем, среди жертв – три следователя, которые, один за другим, пытались разыскать жестокого маньяка. В помощь местной полиции из Москвы присылают странного человека по имени Савва. Точнее, это его фамилия – Савченко. Но имя-отчество, а так же род своих занятий он не афиширует, везде появляясь инкогнито или пользуясь вымышленными историями.

Качество: WEBRip
Формат: AVI

Видео: XviD, ~ 1600 Кбит/с, 720x400, 25 кадр/с
Аудио: 48.0 kHz, AC3 Dolby Digital, 2/0 (L,R) ch, ~ 192 kbps
скриншот  скриншот  скриншот  скриншот  скриншот  

General
Complete name : H:\fiiles x\Территория.2020.WEB-DLRip.Files-x\05. Территория.2020.WEB-DLRip.Files-x.avi
Format : AVI
Format/Info : Audio Video Interleave
File size : 661 MiB
Duration : 51mn 21s
Overall bit rate : 1 801 Kbps
Writing application : VirtualDubMod 1.5.10.3 | www.virtualdub-fr.org || (build 2550/release)
Writing library : VirtualDubMod build 2550/release

Video
ID : 0
Format : MPEG-4 Visual
Format profile : Advanced Simple@L5
Format settings, BVOP : 1
Format settings, QPel : No
Format settings, GMC : No warppoints
Format settings, Matrix : Custom
Codec ID : XVID
Codec ID/Hint : XviD
Duration : 51mn 21s
Bit rate : 1 599 Kbps
Width : 720 pixels
Height : 400 pixels
Display aspect ratio : 16:9
Frame rate : 25.000 fps
Color space : YUV
Chroma subsampling : 4:2:0
Bit depth : 8 bits
Scan type : Progressive
Compression mode : Lossy
Bits/(Pixel*Frame) : 0.222
Stream size : 587 MiB (89%)
Writing library : XviD 73

Audio
ID : 1
Format : AC-3
Format/Info : Audio Coding 3
Mode extension : CM (complete main)
Codec ID : 2000
Duration : 51mn 21s
Bit rate mode : Constant
Bit rate : 192 Kbps
Channel(s) : 2 channels
Channel positions : Front: L R
Sampling rate : 48.0 KHz
Bit depth : 16 bits
Compression mode : Lossy
Stream size : 70.5 MiB (11%)
Alignment : Split accross interleaves
Interleave, duration : 40 ms (1.00 video frame)
Interleave, preload duration : 500 ms

pb.wtf



Скачать Территория через торрент http://i114.fastpic.ru/big/2020/1004/88/b923f9e3b7b00c4b605b4a6c8cc4a388.jpg Скачать фильм Территория через торрент бесплантно в хорошем качестве Описание: Живописные окрестности средней полосы России: лес, река, люди, которые давно и хорошо знают друг друга… Довольно неожиданное ... 10 10 4
Торрент: Зарегистрирован [2020-10-06 06:40] · скачан: 111 раз
Статус: √ проверено
Размер: 5.28 GB
Как cкачать? Как скачать Территория через торрент | qTorrent

% Раздел Тема Автор DL S | L
Наши сериалы [ 4.96 GB ] Территория / Сезон: 1 / Серии: 1-8 из 8 [2019 WEBRip-AVC] bober100 Скачать
7 | 0

28-11-2019 20:33  

Отключить всю рекламу на сайте

    Дорогой пользователь! Огромная просьба, поблагодарите релизера, оцените раздачу и оставьте свои комментарий, если Вы скачали Территория через торрент бесплатно! Внесите свою лепту в развитие PiratBit!
    Комментировать посты могут только пользователи прошедшие не сложную регистрацию
    Показать сообщения:    

    Территория через торрент
    Скачать бесплатно Территория
    Территория скачать торрент
    Территория смотреть онлайн
    Cкачать фильм Территория бесплатно
    Территория скачать торрент в хорошем качестве
    Территория смотреть онлайн бесплатно в хорошем качестве


    Вы не можете начинать темы
    Вы не можете отвечать на сообщения
    Вы не можете редактировать свои сообщения
    Вы не можете удалять свои сообщения
    Вы не можете голосовать в опросах
    Вы не можете прикреплять файлы к сообщениям
    Вы можете скачивать файлы