Ссылка на приватное зеркало нашего сайта всего за 1$. Внимание количество ограничено!!!

2 сезон

iTunes

1 сезон

1

iTunes

iTunes

iTunes

1 сезон

RePack

30

ИГРА 18+

pack

ВАЖНО

!!Акция!!

Alien_RageХит недели

RePack

MK11
pack

Забери бонус

RePack

jed

!!Акция!!

Alien_Rage

RePack

fifa19

RePack

Assassins Creed: Odyssey

RePack

NEED FOR SPEED™ PAYBACK

4 сезон

9 сезон

Бесстыжие 9 сезон

Все сериалы

все сериалы на PB.wtf

RePack

FAR CRY 5
  

Старые кадры / Сезон: 1 / Серии: 1-20 из 20 (Евгений Звездаков, Алексей Луканев) [2020, Детектив, SATRip] pb.wtf

Старые кадры через торрент pb.wtf

Раздают: 10 [ 422 KB/s ] Качают: 1 [ 0 KB/s ]
Размер: 12 GB | Добавлен: 3 д. назад | Торрент скачан:29 раз
Скачать  

06-10-2020 07:39 Старые кадры Скачать торрент  

Старые кадры
Год выпуска: 2020
Страна: Россия
Выпущено: ООО «Алекс Медиа»
Жанр: Детектив
Продолжительность: ~ 00:50:00 серия
Субтитры: отсутствуют

Режиссер: Евгений Звездаков, Алексей Луканев



В ролях: Мария Шукшина, Борис Щербаков, Дмитрий Астрахан, Борис Галкин, Елена Коренева, Артур Ваха, Иван Агапов, Алексей Фатеев, Анна Алексахина, Юлия Яблонская, Александр Никольский, Франя Файзиева, Самвел Мужикян, Заза Чантурия, Алексей Кирилин, Маргарита Шилова, Мария Романова, Олеся Астапова, Наталия Колоскова

Описание: Александра Токарева, опытный сотрудник Следственного комитета, из-за дурацкой случайности сорвала важную операцию. Начальство вынуждено ее перевести, и Токареву отправляют руководить только что созданным отделом по расследованию нераскрытых преступлений – ОРНП. Отдел задуман больше ради имиджа, для улучшения которого к работе хотят привлечь отставных полицейских и поручить им заново расследовать преступления, которые не были раскрыты 20-30 лет назад. Александра набирает команду. Бравые пенсионеры не отличаются ни покладистым характером, ни почтением к начальству. Но оказывается, их зря списали – первое же дело заканчивается успехом.

Качество: SATRip
Формат: AVI

Видео: XviD, ~ 1650 Кбит/с, 720x400
Аудио: MP3, 2 ch, 192 Кбит/с
скриншот  скриншот  скриншот  

Общее
Полное имя : C:\Starye.kadry.S01.XviD.SATRip.25Kuzmich\Starye.kadry.s01.e01.XviD.SATRip.25Kuzmich.avi
Формат : AVI
Формат/Информация : Audio Video Interleave
Размер файла : 672 Мбайт
Продолжительность : 50 м. 42 с.
Общий поток : 1851 Кбит/сек
Программа кодирования : VirtualDubMod 1.5.10.3 (build 2550/release)
Библиотека кодирования : VirtualDubMod build 2550/release

Видео
Идентификатор : 0
Формат : MPEG-4 Visual
Профиль формата : Advanced Simple@L5
Настройки формата : BVOP1
Параметр BVOP формата : 1
Параметр QPel формата : Нет
Параметр GMC формата : Без точки перехода
Параметр матрицы формата : Default (MPEG)
Идентификатор кодека : XVID
Идентификатор кодека/Подсказка : XviD
Продолжительность : 50 м. 42 с.
Битрейт : 1650 Кбит/сек
Ширина : 720 пикселей
Высота : 400 пикселей
Соотношение сторон : 16:9
Частота кадров : 25,000 кадров/сек
Цветовое пространство : YUV
Субдискретизация насыщенности : 4:2:0
Битовая глубина : 8 бит
Тип развёртки : Прогрессивная
Метод сжатия : С потерями
Бит/(Пиксели*Кадры) : 0.229
Размер потока : 598 Мбайт (89%)
Библиотека кодирования : XviD 73

Аудио
Идентификатор : 1
Формат : MPEG Audio
Версия формата : Version 1
Профиль формата : Layer 3
Настройки формата : Joint stereo / MS Stereo
Идентификатор кодека : 55
Идентификатор кодека/Подсказка : MP3
Продолжительность : 50 м. 42 с.
Вид битрейта : Постоянный
Битрейт : 192 Кбит/сек
Каналы : 2 канала
Частота : 48,0 КГц
Частота кадров : 41,667 кадра/сек (1152 SPF)
Метод сжатия : С потерями
Размер потока : 69,6 Мбайт (10%)
Выравнивание : Соединение по промежуткам
Продолжительность промежутка : 40 мс. (1,00 видеокадр)
Время предзагрузки промежутка : 504 мс.
Библиотека кодирования : LAME3.99r
Настройки программы : -m j -V 4 -q 2 -lowpass 18.6 -b 192

Когда раздача ведётся путём добавления новых серий, при каждом добавлении создётся новый торрент. Чтобы начать докачку новой серии, пользователям необходимо сделать следующее:
(1) остановить скачивание,
(2) удалить старый торрент у себя из клиента (старые серии удалять не надо),
(3) скачать новый торрент и запустить его у себя в клиенте вместо старого, при этом указать клиенту путь в старую папку, куда и должно происходить скачивание новых серий.
Ваш клиент при этом должен произвести хеширование (проверку) старой папки (если не производит сам - помогите ему сделать это), и будет докачивать только те серии, которых у вас ещё нет. Старые серии при этом не удаляются, а продолжают раздаваться!
Eсли вы уже удалили старые серии, то предотвратить повторную закачку старых серий можно, отжав галочку в соответсвующих местах при запуске нового торрента. По возможности, желательно не удалять старые серии как можно дольше, чтобы релизёр не столько продолжал раздавать старые серии, а смог сконцентрироваться на новых.

pb.wtf



Скачать Старые кадры через торрент https://img11.lostpic.net/2020/10/05/588c537f645c2f9b883cf1f24eb106b2.jpg Скачать фильм Старые кадры через торрент бесплантно в хорошем качестве Описание: Александра Токарева, опытный сотрудник Следственного комитета, из-за дурацкой случайности сорвала важную операцию. Начальство ... 10 10 7
Торрент: Зарегистрирован [2020-10-16 17:27] · скачан: 29 раз
Статус: √ проверено
Размер: 12 GB
Как cкачать? Как скачать Старые кадры через торрент | qTorrent

% Раздел Тема Автор DL S | L
Наши сериалы [ 26.72 GB ] Старые кадры / Сезон: 1 / Серии: 1-20 из 20 [2020 WEBRip 720p] bober100 Скачать
1 | 0
Наши сериалы [ 13.03 GB ] Старые кадры / Сезон: 1 / Серии: 1-20 из 20 [2020 WEBRip] bober100 Скачать
1 | 1
Наши сериалы [ 15.86 GB ] Старые кадры / Сезон: 1 / Серии: 1-20 из 20 [2020 WEBRip-AVC] bober100 Скачать
3 | 1
Наши сериалы [ 44.3 GB ] Старые кадры / Сезон: 1 / Серии: 1-20 из 20 [2020 WEBRip 1080p] bober100 Скачать
2 | 0

28-11-2019 20:33  

Отключить всю рекламу на сайте

    Дорогой пользователь! Огромная просьба, поблагодарите релизера, оцените раздачу и оставьте свои комментарий, если Вы скачали Старые кадры через торрент бесплатно! Внесите свою лепту в развитие PiratBit!
    Комментировать посты могут только пользователи прошедшие не сложную регистрацию
    Показать сообщения:    

    Старые кадры через торрент
    Скачать бесплатно Старые кадры
    Старые кадры скачать торрент
    Старые кадры смотреть онлайн
    Cкачать фильм Старые кадры бесплатно
    Старые кадры скачать торрент в хорошем качестве
    Старые кадры смотреть онлайн бесплатно в хорошем качестве


    Вы не можете начинать темы
    Вы не можете отвечать на сообщения
    Вы не можете редактировать свои сообщения
    Вы не можете удалять свои сообщения
    Вы не можете голосовать в опросах
    Вы не можете прикреплять файлы к сообщениям
    Вы можете скачивать файлы