Ссылка на приватное зеркало нашего сайта всего за 1$. Внимание количество ограничено!!!

2 сезон

iTunes

1 сезон

1

2 сезон

2 сезон

iTunes

1 сезон

RePack

30

Новинка

ВАЖНО

ИГРА 18+

pack

RePack

MK11
pack

Забери бонус

RePack

jed

!!Акция!!

Alien_Rage

RePack

fifa19

RePack

Assassins Creed: Odyssey

RePack

NEED FOR SPEED™ PAYBACK

4 сезон

9 сезон

Бесстыжие 9 сезон

Все сериалы

все сериалы на PB.wtf

RePack

FAR CRY 5
  

Американские кошмары / American Nightmares / Mr. Malevolent (Расти Кундифф, Дарин Скотт) [2018, Ужасы, комедия, WEB-DL 1080p] DUB [iTunes] pb.wtf

Американские кошмары через торрент pb.wtf

Размер: 3.74 GB | Добавлен: 1 мес. 24 д. назад | Торрент скачан:47 раз
Скачать  

06-10-2020 10:39 Американские кошмары Скачать торрент  

Американские кошмары | American Nightmares | Mr. Malevolent
Год выпуска: 2018
Страна: США
Выпущено: Patriot Pictures
Жанр: Ужасы, комедия
Продолжительность: 01:29:29
Перевод: Дублированный | iTunes
Субтитры: отсутствуют

Режиссер: Расти Кундифф, Дарин Скотт

rating

В ролях: Дэнни Трехо, Клео Берри, Гэбриел Браун, Юрий Браун, Брэдли Бандли, Мадлен Когхлан, Джеймс Дювал, Кортни Фанслер, Майкл Феликс, Вивика А. Фокс, Майкл Анджело Ходж

Описание: Парочка шантажистов-хакеров неожиданно видит на экранах всех своих компьютеров эксцентричного незнакомца, который показывает им семь страшных историй о чужих грехах и неумолимой расплате. ...

Качество: WEB-DL 1080p
Формат: MKV

Видео: MPEG-4 AVC, 5215 Kb/s, 1916x1032, 23.976 fps
Аудио#1 Russian: 48 kHz, AC3 Dolby Digital, 3/2 (L, C, R, l, r) + LFE ch, ~384 Kbps | iTunes
Аудио#2 English: 48 kHz, AC3 Dolby Digital, 3/2 (L, C, R, l, r) + LFE ch, ~384 Kbps | Original
скриншот  скриншот  скриншот  скриншот  

Complete name: American.Nightmares.2018.1080p.WEB-DL.ELEKTRI4KA.UNIONGANG.mkv
Format: Matroska
Format version: Version 4 / Version 2
File size: 3.74 GiB
Duration: 1 h 29 min
Overall bit rate: 5 977 kb/s
Movie name: .ELEKTRI4KA.UNIONGANG.
Encoded date: UTC 2020-10-04 21:13:55
Writing application: mkvmerge v8.3.0 ('Over the Horizon') 64bit
Writing library: libebml v1.3.1 + libmatroska v1.4.2

Video
ID: 1
Format: AVC
Format/Info: Advanced Video Codec
Format profile: High@L4
Format settings, CABAC: Yes
Format settings, Reference frames: 4 frames
Codec ID: V_MPEG4/ISO/AVC
Duration: 1 h 29 min
Bit rate: 5 215 kb/s
Width: 1 916 pixels
Height: 1 032 pixels
Display aspect ratio: 1.85:1
Frame rate mode: Constant
Frame rate: 23.976 FPS
Color space: YUV
Chroma subsampling: 4:2:0
Bit depth: 8 bits
Scan type: Progressive
Bits/(Pixel*Frame): 0.110
Stream size: 3.26 GiB (87%)
Title: .ELEKTRI4KA.UNIONGANG.
Language: English
Default: Yes
Forced: No
Color range: Limited
Color primaries: BT.709
Transfer characteristics: BT.709
Matrix coefficients: BT.709

Audio #1
ID: 2
Format: AC-3
Format/Info: Audio Coding 3
Mode extension: CM (complete main)
Format settings, Endianness: Big
Codec ID: A_AC3
Duration: 1 h 27 min
Bit rate mode: Constant
Bit rate: 384 kb/s
Channel(s): 6 channels
Channel positions: Front: L C R, Side: L R, LFE
Sampling rate: 48.0 kHz
Frame rate: 31.250 FPS (1536 spf)
Bit depth: 16 bits
Compression mode: Lossy
Delay relative to video: -42 ms
Stream size: 240 MiB (6%)
Title: DUB iTunes
Language: Russian
Default: Yes
Forced: Yes

Audio #2
ID: 3
Format: AC-3
Format/Info: Audio Coding 3
Mode extension: CM (complete main)
Format settings, Endianness: Big
Codec ID: A_AC3
Duration: 1 h 29 min
Bit rate mode: Constant
Bit rate: 384 kb/s
Channel(s): 6 channels
Channel positions: Front: L C R, Side: L R, LFE
Sampling rate: 48.0 kHz
Frame rate: 31.250 FPS (1536 spf)
Bit depth: 16 bits
Compression mode: Lossy
Delay relative to video: -42 ms
Stream size: 246 MiB (6%)
Language: English
Default: No
Forced: No

Menu
00:00:00.000: en:1
00:17:09.612: en:2
00:41:05.005: en:3
01:01:41.574: en:4
01:25:26.707: en:5
pb.wtf



Скачать Американские кошмары через торрент https://i1.imageban.ru/out/2020/10/05/239ff48dd4c4b5e84a92b9ee6b9685ef.png Скачать фильм Американские кошмары через торрент бесплантно в хорошем качестве Описание: Парочка шантажистов-хакеров неожиданно видит на экранах всех своих компьютеров эксцентричного незнакомца, который показывает им ... 10 10 3
Торрент: Зарегистрирован [2020-10-06 10:39] · скачан: 47 раз
Статус: √ проверено
Размер: 3.74 GB
Как cкачать? Как скачать Американские кошмары через торрент | qTorrent

% Раздел Тема Автор DL S | L
Фильмы 2018 [DVDrip, WEB-DLRip, HDrip] (DUB, MVO) [ 1.46 GB ] Американские кошмары / American Nightmares / Mr. Malevolent [2018 WEB-DLRip] bober100 Скачать
2 | 0

28-11-2019 20:33  

Отключить всю рекламу на сайте

    Дорогой пользователь! Огромная просьба, поблагодарите релизера, оцените раздачу и оставьте свои комментарий, если Вы скачали Американские кошмары через торрент бесплатно! Внесите свою лепту в развитие PiratBit!
    Комментировать посты могут только пользователи прошедшие не сложную регистрацию
    Показать сообщения:    

    Американские кошмары через торрент
    Скачать бесплатно Американские кошмары
    Американские кошмары скачать торрент
    Американские кошмары смотреть онлайн
    Cкачать фильм Американские кошмары бесплатно
    Американские кошмары скачать торрент в хорошем качестве
    Американские кошмары смотреть онлайн бесплатно в хорошем качестве


    Вы не можете начинать темы
    Вы не можете отвечать на сообщения
    Вы не можете редактировать свои сообщения
    Вы не можете удалять свои сообщения
    Вы не можете голосовать в опросах
    Вы не можете прикреплять файлы к сообщениям
    Вы можете скачивать файлы