Ссылка на приватное зеркало нашего сайта всего за 1$. Внимание количество ограничено!!!

2 сезон

iTunes

1 сезон

1

iTunes

iTunes

iTunes

1 сезон

RePack

30

ИГРА 18+

pack

ВАЖНО

!!Акция!!

Alien_RageХит недели

RePack

MK11
pack

Забери бонус

RePack

jed

!!Акция!!

Alien_Rage

RePack

fifa19

RePack

Assassins Creed: Odyssey

RePack

NEED FOR SPEED™ PAYBACK

4 сезон

9 сезон

Бесстыжие 9 сезон

Все сериалы

все сериалы на PB.wtf

RePack

FAR CRY 5
  

Спутники / Серии: 1-8 из 8 (Иван Шурховецкий) [2015, Военный, драма, WEB-DL 720p] pb.wtf

Спутники через торрент pb.wtf

Размер: 7.51 GB | Добавлен: 20 д. назад | Торрент скачан:19 раз
Скачать  

06-10-2020 14:43 Спутники Скачать торрент  

Спутники
Год выпуска: 2015
Страна: Россия
Выпущено: «ВВП Альянс», Кинокомпания «Марс Медиа»
Жанр: Военный, драма
Продолжительность: ~ 00:49:00
Субтитры: отсутствуют

Режиссер: Иван Шурховецкий



В ролях: Сергей Угрюмов, Нелли Уварова, Виталий Коваленко, Александр Сирин, Дарья Мельникова, Оксана Базилевич, Яков Шамшин, Артур Ваха, Дмитрий Поднозов, Татьяна Рассказова, Маргарита Волкова (III), Мария Антонова, Мария Павловская (Павлова), Маргарита Адаева, Елена Калинина, Сергей Мардарь, Григорий Чабан, Нина Лощинина, Александр Марушев, Александр Карпухов, Дмитрий Гульнев, Илья Шорохов, Александр Маслов, Александр Галеев

Описание: 1941 год. Начало войны. Комиссар Данилов набирает медицинский персонал в санитарный поезд. К нему попадает доктор Белов, интеллигентный врач, оставивший свою семью в Ленинграде. Юлия, строгая операционная медсестра, старая дева. Красавица Фаина, испытывающая свои чары на Данилове и монтере Недзвецком. Эти люди проведут вместе бок о бок все четыре года войны, пройдя испытания на смелость, порядочность, стойкость и доброту.

Качество: WEB-DL 720p
Формат: MKV

Видео: MPEG-4 AVC, ~ 2600 Кбит/с, 1280x720, 25 кадр/с
Аудио: 48.0 kHz, AC3 Dolby Digital, 2/0 (L,R) ch, ~ 192 kbps
скриншот  скриншот  скриншот  скриншот  

Общее
Уникальный идентификатор : 249195743366991494418772354450580147096 (0xBB795ABB090B1B84BDA6CE76748D8B98)
Полное имя : C:\Sputniki.2015.WEB-DL.(720p).ExKinoRay\Sputniki.2015.E01.WEB-DL.(720p).ExKinoRay.mkv
Формат : Matroska
Версия формата : Version 2
Размер файла : 960 Мбайт
Продолжительность : 48 м. 49 с.
Общий поток : 2749 Кбит/сек
Дата кодирования : UTC 2020-10-05 18:07:23
Программа кодирования : mkvmerge v5.8.0 ('No Sleep / Pillow') built on Sep 2 2012 15:37:04
Библиотека кодирования : libebml v1.2.3 + libmatroska v1.3.0

Видео
Идентификатор : 1
Формат : AVC
Формат/Информация : Advanced Video Codec
Профиль формата : High@L4
Настройки формата : CABAC / 4 Ref Frames
Параметр CABAC формата : Да
Параметр RefFrames формата : 4 кадра
Идентификатор кодека : V_MPEG4/ISO/AVC
Продолжительность : 48 м. 49 с.
Битрейт : 2503 Кбит/сек
Ширина : 1280 пикселей
Высота : 720 пикселей
Соотношение сторон : 16:9
Режим частоты кадров : Постоянный
Частота кадров : 25,000 кадров/сек
Цветовое пространство : YUV
Субдискретизация насыщенности : 4:2:0
Битовая глубина : 8 бит
Тип развёртки : Прогрессивная
Бит/(Пиксели*Кадры) : 0.109
Размер потока : 874 Мбайт (91%)
Язык : Russian
Default : Да
Forced : Нет

Аудио
Идентификатор : 2
Формат : AC-3
Формат/Информация : Audio Coding 3
Коммерческое название : Dolby Digital
Идентификатор кодека : A_AC3
Продолжительность : 48 м. 49 с.
Вид битрейта : Постоянный
Битрейт : 192 Кбит/сек
Каналы : 2 канала
ChannelLayout : L R
Частота : 48,0 КГц
Частота кадров : 31,250 кадров/сек (1536 SPF)
Битовая глубина : 16 бит
Метод сжатия : С потерями
Размер потока : 67,1 Мбайт (7%)
Язык : Russian
ServiceKind/String : Complete Main
Default : Да
Forced : Нет

pb.wtf



Скачать Спутники через торрент http://d.radikal.ru/d32/2009/7f/322f49ada272.jpg Скачать фильм Спутники через торрент бесплантно в хорошем качестве Описание: 1941 год. Начало войны. Комиссар Данилов набирает медицинский персонал в санитарный поезд. К нему попадает доктор Белов, ... 10 10 3
Торрент: Зарегистрирован [2020-10-06 14:43] · скачан: 19 раз
Статус: √ проверено
Размер: 7.51 GB
Как cкачать? Как скачать Спутники через торрент | qTorrent

% Раздел Тема Автор DL S | L
Зарубежные сериалы [ 4.91 GB ] Спутники / Серии: 1-8 из 8 [2015 Военный WEB-DLRip] bober100 Скачать
1 | 0
Наши сериалы [ 4.89 GB ] Спутники / Серии: 1-8 из 8 [2015 Военный WEB-DLRip-AVC] bober100 Скачать
1 | 0
Наши сериалы [ 9.95 GB ] Спутники / Серии: 1-8 из 8 [2015 Военный HDTVRip 720p] bober100 Скачать
4 | 0
Наши сериалы [ 5.27 GB ] Спутники / Серии: 1-8 из 8 [2015 Военный HDTVRip] bober100 Скачать
7 | 0
Наши сериалы [ 21.67 GB ] Спутники / Серии: 1-8 из 8 [2015 Военный HDTV 1080i] bober100 Скачать
3 | 0

28-11-2019 20:33  

Отключить всю рекламу на сайте

    Дорогой пользователь! Огромная просьба, поблагодарите релизера, оцените раздачу и оставьте свои комментарий, если Вы скачали Спутники через торрент бесплатно! Внесите свою лепту в развитие PiratBit!
    Комментировать посты могут только пользователи прошедшие не сложную регистрацию
    Показать сообщения:    

    Спутники через торрент
    Скачать бесплатно Спутники
    Спутники скачать торрент
    Спутники смотреть онлайн
    Cкачать фильм Спутники бесплатно
    Спутники скачать торрент в хорошем качестве
    Спутники смотреть онлайн бесплатно в хорошем качестве


    Вы не можете начинать темы
    Вы не можете отвечать на сообщения
    Вы не можете редактировать свои сообщения
    Вы не можете удалять свои сообщения
    Вы не можете голосовать в опросах
    Вы не можете прикреплять файлы к сообщениям
    Вы можете скачивать файлы