Anonymous, добрый день, присоединяйтесь к нам в Telegram!, здесь всегда актуальный адрес сайта, оперативная поддержка и многое другое!

>

5.6

iTunes

7.4

iTunes

5.7

MVO

1

7.7

1 сезон

6.8

iTunes

7.3

1 сезон

13

6.7

1 сезон

8.3

RePack

30

ULTIMATE

pack

9.9

Лицензия

ВАЖНО

ИГРА 18+

pack

7.3

RePack

MK11

7.7

RePack

jed

7.8

RePack

fifa19

8.5

RePack

RDR2

RePack

NEED FOR SPEED™ PAYBACK

4 сезон

9 сезон

Бесстыжие 9 сезон

Все сериалы

все сериалы на PB.wtf

RePack

FAR CRY 5

Anonymous, добрый день, мы катастрофически не успеваем собрать деньги на оплату серверов, помогите нам пожалуйста 5,10,15р., для нас важна любая помощь . В качестве благодарности мы отключим Вам всю рекламу на сайте (укажите свой ник в строку Ваше имя)!

×
  
Magnet ссылка

Гусар / Сезон: 1 / Серии: 1-18 из 18 (Заур Болотаев, Рустам Мосафир) [2020, Комедия, приключения, WEBRip 720p] pb.wtf

Гусар через торрент pb.wtf

Размер: 9.06 GB | Добавлен: 11 мес. назад | Торрент скачан:149 раз
Смотреть онлайн Гусар | Скачать    Ребята, помогите собрать деньги на оплату серверов!!!

06-10-2020 18:36 Гусар Скачать торрент  

Гусар
Год выпуска: 2020
Страна: Россия
Выпущено: Comedy Club Production по заказу телеканала ТНТ
Жанр: Комедия, приключения
Продолжительность: ~ 00:25:00 серия
Перевод: Не требуется
Субтитры: отсутствуют

Режиссер: Заур Болотаев, Рустам Мосафир



В ролях: Гарик Харламов, Павел Рассомахин, Екатерина Ковальчук, Екатерина Радченко, Сергей Белов, Валерия Кристиансен, Светлана Фролова

Описание: 1812 год. Поручик Григорий Рыльский должен доставить Кутузову секретные документы. Как только они попадут к полководцу, русская армия начнет наступление. Но по пути в штаб поручик заглядывается на сельскую девицу и вдруг… оказывается в будущем – в квартире молодого ученого Дмитрия Журавлева и его жены Кати, которые находятся на грани развода. При попытке вернуть Гусара обратно в прошлое, машина времени ломается, и поручик вынужден оставаться в 21 веке, пока ученый не починит машину.

Качество: WEBRip 720p
Формат: MKV

Видео: MPEG-4 AVC, ~ 3000 Кбит/с, 1280x720, 25 кадр/с
Аудио: 48.0 kHz, AC3 Dolby Digital, 2/0 (L,R) ch, ~ 192 kbps
скриншот  скриншот  скриншот  скриншот  скриншот  

General
Unique ID : 224891923630229133646853324284183349942 (0xA9309BE73AB9A772A07DAAE6196E8AB6)
Complete name : H:\fiiles x\Гусар.2020.WEB-DL 720p.Files-x\01. Гусар.2020.WEB-DL 720p.Files-x.mkv
Format : Matroska
File size : 504 MiB
Duration : 22mn 38s
Overall bit rate : 3 113 Kbps
Encoded date : UTC 2020-10-05 17:36:49
Writing application : mkvmerge v7.8.0 ('River Man') 32bit built on Apr 3 2015 12:11:22
Writing library : libebml v1.3.1 + libmatroska v1.4.2

Video
ID : 1
Format : AVC
Format/Info : Advanced Video Codec
Format profile : High@L3.1
Format settings, CABAC : Yes
Format settings, ReFrames : 1 frame
Codec ID : V_MPEG4/ISO/AVC
Duration : 22mn 38s
Bit rate mode : Variable
Bit rate : 2 859 Kbps
Maximum bit rate : 3 000 Kbps
Width : 1 280 pixels
Height : 720 pixels
Display aspect ratio : 16:9
Frame rate : 25.000 fps
Color space : YUV
Chroma subsampling : 4:2:0
Bit depth : 8 bits
Scan type : Progressive
Bits/(Pixel*Frame) : 0.124
Stream size : 463 MiB (92%)

Audio
ID : 2
Format : AC-3
Format/Info : Audio Coding 3
Mode extension : CM (complete main)
Codec ID : A_AC3
Duration : 22mn 38s
Bit rate mode : Constant
Bit rate : 192 Kbps
Channel(s) : 2 channels
Channel positions : Front: L R
Sampling rate : 44.1 KHz
Bit depth : 16 bits
Compression mode : Lossy
Delay relative to video : 9ms
Stream size : 31.1 MiB (6%)

Когда раздача ведётся путём добавления новых серий, при каждом добавлении создётся новый торрент. Чтобы начать докачку новой серии, пользователям необходимо сделать следующее:
(1) остановить скачивание,
(2) удалить старый торрент у себя из клиента (старые серии удалять не надо),
(3) скачать новый торрент и запустить его у себя в клиенте вместо старого, при этом указать клиенту путь в старую папку, куда и должно происходить скачивание новых серий.
Ваш клиент при этом должен произвести хеширование (проверку) старой папки (если не производит сам - помогите ему сделать это), и будет докачивать только те серии, которых у вас ещё нет. Старые серии при этом не удаляются, а продолжают раздаваться!
Eсли вы уже удалили старые серии, то предотвратить повторную закачку старых серий можно, отжав галочку в соответсвующих местах при запуске нового торрента. По возможности, желательно не удалять старые серии как можно дольше, чтобы релизёр не столько продолжал раздавать старые серии, а смог сконцентрироваться на новых.

pb.wtf



Скачать Гусар через торрент https://img11.lostpic.net/2020/10/05/42c82182441b563f602904e91a594836.jpg Скачать, смотреть онлайн Гусар бесплантно в хорошем качестве Описание: 1812 год. Поручик Григорий Рыльский должен доставить Кутузову секретные документы. Как только они попадут к полководцу, русская ... 9.2 10 18
Торрент: Зарегистрирован [2020-10-29 18:49] · скачан: 149 раз
Статус: √ проверено
Размер: 9.06 GB
Как cкачать? Как скачать Гусар через торрент | UTorrent

% Раздел Тема Автор DL S | L
TNT serials [ 17.09 GB ] Гусар / Сезон: 1 / Серии: 1-18 из 18 [2020 HDTV 1080i] bober100 Скачать
4 | 0
TNT serials [ 5.31 GB ] Гусар / Сезон: 1 / Серии: 1-18 из 18 [2020 SATRip] bober100 Скачать
1 | 0
TNT serials [ 13.32 GB ] Гусар / Сезон: 1 / Серии: 1-18 из 18 [2020 WEBRip 1080p] bober100 Скачать
3 | 0
TNT serials [ 5.26 GB ] Гусар / Сезон: 1 / Серии: 1-18 из 18 [2020 WEBRip-AVC] bober100 Скачать
7 | 0
TNT serials [ 5.28 GB ] Гусар / Сезон: 1 / Серии: 1-18 из 18 [2020 WEBRip] bober100 Скачать
2 | 0


Последний раз редактировалось: bober100 (2020-10-28 18:45), всего редактировалось 2 раз(а)

28-11-2019 20:33  

Отключить всю рекламу на сайте

    Дорогой пользователь! Огромная просьба, поблагодарите релизера, оцените раздачу и оставьте свои комментарий, если Вы скачали Гусар через торрент бесплатно!
    Комментировать посты могут только пользователи прошедшие не сложную регистрацию
    Показать сообщения:    

    Гусар через торрент
    Скачать бесплатно Гусар
    Гусар скачать торрент
    Гусар смотреть онлайн
    Cкачать фильм Гусар бесплатно
    Гусар скачать торрент в хорошем качестве
    Гусар смотреть онлайн бесплатно в хорошем качестве


    Вы не можете начинать темы
    Вы не можете отвечать на сообщения
    Вы не можете редактировать свои сообщения
    Вы не можете удалять свои сообщения
    Вы не можете голосовать в опросах
    Вы не можете прикреплять файлы к сообщениям
    Вы можете скачивать файлы