Anonymous, добрый день, присоединяйтесь к нам в Telegram!, здесь всегда актуальный адрес сайта, оперативная поддержка и многое другое!

>

5.6

iTunes

7.4

iTunes

5.7

MVO

1

7.7

1 сезон

6.8

iTunes

7.3

1 сезон

13

6.7

1 сезон

8.3

RePack

30

ULTIMATE

pack

9.9

Лицензия

ВАЖНО

ИГРА 18+

pack

7.3

RePack

MK11

7.7

RePack

jed

7.8

RePack

fifa19

8.5

RePack

RDR2

RePack

NEED FOR SPEED™ PAYBACK

4 сезон

9 сезон

Бесстыжие 9 сезон

Все сериалы

все сериалы на PB.wtf

RePack

FAR CRY 5

Anonymous, добрый день, мы катастрофически не успеваем собрать деньги на оплату серверов, помогите нам пожалуйста 5,10,15р., для нас важна любая помощь . В качестве благодарности мы отключим Вам всю рекламу на сайте (укажите свой ник в строку Ваше имя)!

×
  
Magnet ссылка

Гусар / Сезон: 1 / Серии: 1-18 из 18 (Заур Болотаев, Рустам Мосафир) [2020, Комедия, приключения, WEBRip] pb.wtf

Гусар через торрент pb.wtf

Раздают: 1 [ 0 KB/s ]
Размер: 5.28 GB | Добавлен: 11 мес. назад | Торрент скачан:124 раза
Смотреть онлайн Гусар | Скачать    Ребята, помогите собрать деньги на оплату серверов!!!

06-10-2020 19:17 Гусар Скачать торрент  

Гусар
Год выпуска: 2020
Страна: Россия
Выпущено: Comedy Club Production по заказу телеканала ТНТ
Жанр: Комедия, приключения
Продолжительность: ~ 00:25:00 серия
Перевод: Не требуется
Субтитры: отсутствуют

Режиссер: Заур Болотаев, Рустам Мосафир



В ролях: Гарик Харламов, Павел Рассомахин, Екатерина Ковальчук, Екатерина Радченко, Сергей Белов, Валерия Кристиансен, Светлана Фролова

Описание: 1812 год. Поручик Григорий Рыльский должен доставить Кутузову секретные документы. Как только они попадут к полководцу, русская армия начнет наступление. Но по пути в штаб поручик заглядывается на сельскую девицу и вдруг… оказывается в будущем – в квартире молодого ученого Дмитрия Журавлева и его жены Кати, которые находятся на грани развода. При попытке вернуть Гусара обратно в прошлое, машина времени ломается, и поручик вынужден оставаться в 21 веке, пока ученый не починит машину.

Качество: WEBRip
Формат: AVI

Видео: XviD, ~ 1650 Кбит/с, 720x400, 25 кадр/с
Аудио: 48.0 kHz, AC3 Dolby Digital, 2/0 (L,R) ch, ~ 192 kbps
скриншот  скриншот  скриншот  

Общее
Полное имя : C:\Gusar.S01.WEB-DLRip.25Kuzmich\Gusar.s01e01.WEB-DLRip.25Kuzmich.avi
Формат : AVI
Формат/Информация : Audio Video Interleave
Размер файла : 300 Мбайт
Продолжительность : 22 м. 38 с.
Общий поток : 1856 Кбит/сек
Программа кодирования : VirtualDubMod 1.5.10.3 | www.virtualdub-fr.org || (build 2550/release)
Библиотека кодирования : VirtualDubMod build 2550/release

Видео
Идентификатор : 0
Формат : MPEG-4 Visual
Профиль формата : Advanced Simple@L5
Настройки формата : BVOP1
Параметр BVOP формата : 1
Параметр QPel формата : Нет
Параметр GMC формата : Без точки перехода
Параметр матрицы формата : Default (MPEG)
Идентификатор кодека : XVID
Идентификатор кодека/Подсказка : XviD
Продолжительность : 22 м. 38 с.
Битрейт : 1654 Кбит/сек
Ширина : 720 пикселей
Высота : 400 пикселей
Соотношение сторон : 16:9
Частота кадров : 25,000 кадров/сек
Цветовое пространство : YUV
Субдискретизация насыщенности : 4:2:0
Битовая глубина : 8 бит
Тип развёртки : Прогрессивная
Метод сжатия : С потерями
Бит/(Пиксели*Кадры) : 0.230
Размер потока : 268 Мбайт (89%)
Библиотека кодирования : XviD 73

Аудио
Идентификатор : 1
Формат : AC-3
Формат/Информация : Audio Coding 3
Коммерческое название : Dolby Digital
Идентификатор кодека : 2000
Продолжительность : 22 м. 38 с.
Вид битрейта : Постоянный
Битрейт : 192 Кбит/сек
Каналы : 2 канала
ChannelLayout : L R
Частота : 48,0 КГц
Частота кадров : 31,250 кадров/сек (1536 SPF)
Битовая глубина : 16 бит
Метод сжатия : С потерями
Размер потока : 31,1 Мбайт (10%)
Выравнивание : Разделение по промежуткам
Продолжительность промежутка : 40 мс. (1,00 видеокадр)
Время предзагрузки промежутка : 500 мс.
ServiceKind/String : Complete Main

Когда раздача ведётся путём добавления новых серий, при каждом добавлении создётся новый торрент. Чтобы начать докачку новой серии, пользователям необходимо сделать следующее:
(1) остановить скачивание,
(2) удалить старый торрент у себя из клиента (старые серии удалять не надо),
(3) скачать новый торрент и запустить его у себя в клиенте вместо старого, при этом указать клиенту путь в старую папку, куда и должно происходить скачивание новых серий.
Ваш клиент при этом должен произвести хеширование (проверку) старой папки (если не производит сам - помогите ему сделать это), и будет докачивать только те серии, которых у вас ещё нет. Старые серии при этом не удаляются, а продолжают раздаваться!
Eсли вы уже удалили старые серии, то предотвратить повторную закачку старых серий можно, отжав галочку в соответсвующих местах при запуске нового торрента. По возможности, желательно не удалять старые серии как можно дольше, чтобы релизёр не столько продолжал раздавать старые серии, а смог сконцентрироваться на новых.

pb.wtf



Скачать Гусар через торрент https://img11.lostpic.net/2020/10/05/42c82182441b563f602904e91a594836.jpg Скачать, смотреть онлайн Гусар бесплантно в хорошем качестве Описание: 1812 год. Поручик Григорий Рыльский должен доставить Кутузову секретные документы. Как только они попадут к полководцу, русская ... 10 10 24
Торрент: Зарегистрирован [2020-10-29 19:34] · скачан: 124 раз
Статус: √ проверено
Размер: 5.28 GB
Как cкачать? Как скачать Гусар через торрент | UTorrent

% Раздел Тема Автор DL S | L
TNT serials [ 17.09 GB ] Гусар / Сезон: 1 / Серии: 1-18 из 18 [2020 HDTV 1080i] bober100 Скачать
4 | 0
TNT serials [ 5.31 GB ] Гусар / Сезон: 1 / Серии: 1-18 из 18 [2020 SATRip] bober100 Скачать
1 | 0
TNT serials [ 13.32 GB ] Гусар / Сезон: 1 / Серии: 1-18 из 18 [2020 WEBRip 1080p] bober100 Скачать
3 | 0
TNT serials [ 5.26 GB ] Гусар / Сезон: 1 / Серии: 1-18 из 18 [2020 WEBRip-AVC] bober100 Скачать
6 | 0
TNT serials [ 9.06 GB ] Гусар / Сезон: 1 / Серии: 1-18 из 18 [2020 WEBRip 720p] bober100 Скачать
1 | 0


Последний раз редактировалось: bober100 (2020-10-14 07:48), всего редактировалось 1 раз

28-11-2019 20:33  

Отключить всю рекламу на сайте

    Дорогой пользователь! Огромная просьба, поблагодарите релизера, оцените раздачу и оставьте свои комментарий, если Вы скачали Гусар через торрент бесплатно!
    Комментировать посты могут только пользователи прошедшие не сложную регистрацию
    Показать сообщения:    

    Гусар через торрент
    Скачать бесплатно Гусар
    Гусар скачать торрент
    Гусар смотреть онлайн
    Cкачать фильм Гусар бесплатно
    Гусар скачать торрент в хорошем качестве
    Гусар смотреть онлайн бесплатно в хорошем качестве


    Вы не можете начинать темы
    Вы не можете отвечать на сообщения
    Вы не можете редактировать свои сообщения
    Вы не можете удалять свои сообщения
    Вы не можете голосовать в опросах
    Вы не можете прикреплять файлы к сообщениям
    Вы можете скачивать файлы