Ссылка на приватное зеркало нашего сайта всего за 1$. Внимание количество ограничено!!!

2 сезон

iTunes

1 сезон

1

2 сезон

2 сезон

iTunes

1 сезон

RePack

30

Ultimate

ВАЖНО

ИГРА 18+

pack

RePack

MK11
pack

Забери бонус

RePack

jed

!!Акция!!

Alien_Rage

RePack

fifa19

RePack

Assassins Creed: Odyssey

RePack

NEED FOR SPEED™ PAYBACK

4 сезон

9 сезон

Бесстыжие 9 сезон

Все сериалы

все сериалы на PB.wtf

RePack

FAR CRY 5
  

Бун: Охотник за головами / Boone: The Bounty Hunter (Роберт Кирбисон) [2017 г., триллер, криминал, BDRip-AVC] MVO - ExKinoRay pb.wtf

Бун: Охотник за головами через торрент pb.wtf

Раздают: 3 [ 0 KB/s ]
Размер: 2.18 GB | Добавлен: 1 мес. 29 д. назад | Торрент скачан:108 раз
Скачать  

07-10-2020 04:02 Бун: Охотник за головами Скачать торрент  

Название: Бун: Охотник за головами
Оригинальное название: Boone: The Bounty Hunter
Год выпуска: 2017
Жанр: Боевик, драма
Выпущено: США, HopLite Entertainment, Killion Street
Режиссер: Роберт Кирбисон
В ролях: Джон Хенниган, Осрик Чау, Спенсер Грэммер, Джонатан Липники, Ричард Тайсон, Джейн Парк Смит, Лесли Фера, Куинтон Джексон, Лоренцо Ламас, Кевин Сорбо

О фильме: Молодой парень по имени Бун закончил свою карьеру военного, и решил зарабатывать себе на жизнь с помощью собственного телешоу: благодаря своим навыкам он находил опасных преступников, гонясь за ними по всему Лос-Анджелесу. Такое шоу очень долгое время держало всех в напряжении, и оно было самым рейтинговым на телевидении. Однако, все когда-то надоедает, и это шоу начало терять свою былую популярность. Бун не мог смириться с тем, что передачу закрывают, поэтому он решил сделать другое шоу, которое будет принадлежать только ему. Он находит новое интересное дело: убийство девушки, которое ему предстоит раскрывать. Взяв с собой команду друзей и камеры, они отправляются в Мексику, где скрывается убийца. Но никто из ребят даже предположить себе не мог, что они столкнуться с преступной мафией, которая может попросту уничтожить их.

rating

Страна: США
Студия: HopLite Entertainment, Killion Street
Продолжительность: 01:26:06
Перевод: Профессиональный многоголосый, закадровый по заказу Creative Arts Media

Формат: MKV
Качество: BDRip-AVC
Видео: MPEG-4 AVC, 1024x576 (16:9), 23.976 fps, 2980 Kbps, 0.211 bit/pixel
Аудио #01: 48 kHz, AC3, 2.0, 192 Kbps | MVO | RUS |
Аудио #02: 48 kHz, AC3, 5.1, 448 Kbps | Оригинал | ENG |
General
Unique ID : 232730506955899269382955368352330459329 (0xAF1643E63C856D00B48A6B2B76A6A8C1)
Complete name : F:\Boone.The.Bounty.Hunter.2017.BDRip.AVC.ExKinoRay.mkv
Format : Matroska
Format version : Version 2
File size : 2.18 GiB
Duration : 1 h 26 min
Overall bit rate : 3 620 kb/s
Movie name : Boone: The Bounty Hunter 2017 from ExKinoRay
Encoded date : UTC 2020-10-06 22:45:37
Writing application : mkvmerge v5.6.0 ('Kenya Kane') built on May 27 2012 16:44:04
Writing library : libebml v1.2.3 + libmatroska v1.3.0

Video
ID : 1
Format : AVC
Format/Info : Advanced Video Codec
Format profile : High@L4.1
Format settings, CABAC : Yes
Format settings, ReFrames : 11 frames
Codec ID : V_MPEG4/ISO/AVC
Duration : 1 h 26 min
Bit rate : 2 980 kb/s
Width : 1 024 pixels
Height : 576 pixels
Display aspect ratio : 16:9
Frame rate mode : Constant
Frame rate : 23.976 (23976/1000) FPS
Color space : YUV
Chroma subsampling : 4:2:0
Bit depth : 8 bits
Scan type : Progressive
Bits/(Pixel*Frame) : 0.211
Stream size : 1.75 GiB (80%)
Title : Enigma
Writing library : x264 core 152 r2851 ba24899
Encoding settings : cabac=1 / ref=11 / deblock=1:-2:-2 / analyse=0x3:0x113 / me=umh / subme=10 / psy=1 / psy_rd=1.03:0.05 / mixed_ref=1 / me_range=32 / chroma_me=1 / trellis=2 / 8x8dct=1 / cqm=0 / deadzone=21,11 / fast_pskip=0 / chroma_qp_offset=-3 / threads=12 / lookahead_threads=3 / sliced_threads=0 / nr=0 / decimate=0 / interlaced=0 / bluray_compat=0 / constrained_intra=0 / bframes=10 / b_pyramid=2 / b_adapt=2 / b_bias=0 / direct=3 / weightb=1 / open_gop=0 / weightp=2 / keyint=240 / keyint_min=23 / scenecut=40 / intra_refresh=0 / rc=2pass / mbtree=0 / bitrate=2980 / ratetol=1.0 / qcomp=0.60 / qpmin=0 / qpmax=51 / qpstep=4 / cplxblur=20.0 / qblur=0.5 / ip_ratio=1.30 / pb_ratio=1.20 / aq=3:0.90
Language : English
Default : Yes
Forced : No
Color range : Limited
Color primaries : BT.709
Transfer characteristics : BT.709
Matrix coefficients : BT.709

Audio #1
ID : 2
Format : AC-3
Format/Info : Audio Coding 3
Mode extension : CM (complete main)
Format settings, Endianness : Big
Codec ID : A_AC3
Duration : 1 h 26 min
Bit rate mode : Constant
Bit rate : 192 kb/s
Channel(s) : 2 channels
Channel positions : Front: L R
Sampling rate : 48.0 kHz
Frame rate : 31.250 FPS (1536 spf)
Compression mode : Lossy
Stream size : 118 MiB (5%)
Title : MVO
Language : Russian
Default : Yes
Forced : No

Audio #2
ID : 3
Format : AC-3
Format/Info : Audio Coding 3
Mode extension : CM (complete main)
Format settings, Endianness : Big
Codec ID : A_AC3
Duration : 1 h 26 min
Bit rate mode : Constant
Bit rate : 448 kb/s
Channel(s) : 6 channels
Channel positions : Front: L C R, Side: L R, LFE
Sampling rate : 48.0 kHz
Frame rate : 31.250 FPS (1536 spf)
Compression mode : Lossy
Stream size : 276 MiB (12%)
Language : English
Default : No
Forced : No

Menu
00:00:00.000 : en:00:00:00.000
00:10:30.004 : en:00:10:30.004
00:19:29.960 : en:00:19:29.960
00:32:38.999 : en:00:32:38.999
00:43:51.003 : en:00:43:51.003
00:54:13.959 : en:00:54:13.959
01:03:36.980 : en:01:03:36.980
01:15:14.927 : en:01:15:14.927
01:18:49.934 : en:01:18:49.934


Релиз от:

Автор релиза: pb.wtf



Скачать Бун: Охотник за головами через торрент https://b.radikal.ru/b33/2010/cf/ee6323eb4466.jpg Скачать фильм Бун: Охотник за головами через торрент бесплантно в хорошем качестве О фильме: Молодой парень по имени Бун закончил свою карьеру военного, и решил зарабатывать себе на жизнь с помощью собственного телешоу: ... 10 10 8
Info! Золотая раздача, скачанное не засчитывается.
Торрент: Зарегистрирован [2020-10-07 04:02] · скачан: 108 раз
Статус: √ проверено
Размер: 2.18 GB
Как cкачать? Как скачать Бун: Охотник за головами через торрент | qTorrent

28-11-2019 20:33  

Отключить всю рекламу на сайте

    Дорогой пользователь! Огромная просьба, поблагодарите релизера, оцените раздачу и оставьте свои комментарий, если Вы скачали Бун: Охотник за головами через торрент бесплатно! Внесите свою лепту в развитие PiratBit!
    Комментировать посты могут только пользователи прошедшие не сложную регистрацию
    Показать сообщения:    

    Бун: Охотник за головами через торрент
    Скачать бесплатно Бун: Охотник за головами
    Бун: Охотник за головами скачать торрент
    Бун: Охотник за головами смотреть онлайн
    Cкачать фильм Бун: Охотник за головами бесплатно
    Бун: Охотник за головами скачать торрент в хорошем качестве
    Бун: Охотник за головами смотреть онлайн бесплатно в хорошем качестве


    Вы не можете начинать темы
    Вы не можете отвечать на сообщения
    Вы не можете редактировать свои сообщения
    Вы не можете удалять свои сообщения
    Вы не можете голосовать в опросах
    Вы не можете прикреплять файлы к сообщениям
    Вы можете скачивать файлы