Ссылка на приватное зеркало нашего сайта всего за 1$. Внимание количество ограничено!!!

2 сезон

iTunes

1 сезон

1

iTunes

iTunes

iTunes

1 сезон

RePack

30

ИГРА 18+

pack

ВАЖНО

!!Акция!!

Alien_RageХит недели

RePack

MK11
pack

Забери бонус

RePack

jed

!!Акция!!

Alien_Rage

RePack

fifa19

RePack

Assassins Creed: Odyssey

RePack

NEED FOR SPEED™ PAYBACK

4 сезон

9 сезон

Бесстыжие 9 сезон

Все сериалы

все сериалы на PB.wtf

RePack

FAR CRY 5
  

Старые кадры / Сезон: 1 / Серии: 1-20 из 20 (Евгений Звездаков, Алексей Луканев) [2020, Детектив, WEBRip] pb.wtf

Старые кадры через торрент pb.wtf

Раздают: 1 [ 0.2 KB/s ]
Размер: 13.03 GB | Добавлен: 9 д. назад | Торрент скачан:8 раз
Скачать  

07-10-2020 12:17 Старые кадры Скачать торрент  

Старые кадры
Год выпуска: 2020
Страна: Россия
Выпущено: ООО «Алекс Медиа»
Жанр: Детектив
Продолжительность: ~ 00:50:00 серия
Субтитры: отсутствуют

Режиссер: Евгений Звездаков, Алексей Луканев



В ролях: Мария Шукшина, Борис Щербаков, Дмитрий Астрахан, Борис Галкин, Елена Коренева, Артур Ваха, Иван Агапов, Алексей Фатеев, Анна Алексахина, Юлия Яблонская, Александр Никольский, Франя Файзиева, Самвел Мужикян, Заза Чантурия, Алексей Кирилин, Маргарита Шилова, Мария Романова, Олеся Астапова, Наталия Колоскова

Описание: Александра Токарева, опытный сотрудник Следственного комитета, из-за дурацкой случайности сорвала важную операцию. Начальство вынуждено ее перевести, и Токареву отправляют руководить только что созданным отделом по расследованию нераскрытых преступлений – ОРНП. Отдел задуман больше ради имиджа, для улучшения которого к работе хотят привлечь отставных полицейских и поручить им заново расследовать преступления, которые не были раскрыты 20-30 лет назад. Александра набирает команду. Бравые пенсионеры не отличаются ни покладистым характером, ни почтением к начальству. Но оказывается, их зря списали – первое же дело заканчивается успехом.

Качество: WEBRip
Формат: AVI

Видео: XviD, ~ 1600 Кбит/с, 720x400, 25 кадр/с
Аудио: 48.0 kHz, AC3 Dolby Digital, 2/0 (L,R) ch, ~ 192 kbps
скриншот  скриншот  скриншот  скриншот  скриншот  

General
Complete name : H:\fiiles x\Старые кадры.2020.WEB-DLRip.Files-x\02. Старые кадры.2020.WEB-DLRip.Files-x.avi
Format : AVI
Format/Info : Audio Video Interleave
File size : 671 MiB
Duration : 52mn 5s
Overall bit rate : 1 802 Kbps
Writing application : VirtualDubMod 1.5.10.3 | www.virtualdub-fr.org || (build 2550/release)
Writing library : VirtualDubMod build 2550/release

Video
ID : 0
Format : MPEG-4 Visual
Format profile : Advanced Simple@L5
Format settings, BVOP : 1
Format settings, QPel : No
Format settings, GMC : No warppoints
Format settings, Matrix : Custom
Codec ID : XVID
Codec ID/Hint : XviD
Duration : 52mn 5s
Bit rate : 1 600 Kbps
Width : 720 pixels
Height : 400 pixels
Display aspect ratio : 16:9
Frame rate : 25.000 fps
Color space : YUV
Chroma subsampling : 4:2:0
Bit depth : 8 bits
Scan type : Progressive
Compression mode : Lossy
Bits/(Pixel*Frame) : 0.222
Stream size : 596 MiB (89%)
Writing library : XviD 73

Audio
ID : 1
Format : AC-3
Format/Info : Audio Coding 3
Mode extension : CM (complete main)
Codec ID : 2000
Duration : 52mn 5s
Bit rate mode : Constant
Bit rate : 192 Kbps
Channel(s) : 2 channels
Channel positions : Front: L R
Sampling rate : 48.0 KHz
Bit depth : 16 bits
Compression mode : Lossy
Stream size : 71.5 MiB (11%)
Alignment : Split accross interleaves
Interleave, duration : 40 ms (1.00 video frame)
Interleave, preload duration : 500 ms

Когда раздача ведётся путём добавления новых серий, при каждом добавлении создётся новый торрент. Чтобы начать докачку новой серии, пользователям необходимо сделать следующее:
(1) остановить скачивание,
(2) удалить старый торрент у себя из клиента (старые серии удалять не надо),
(3) скачать новый торрент и запустить его у себя в клиенте вместо старого, при этом указать клиенту путь в старую папку, куда и должно происходить скачивание новых серий.
Ваш клиент при этом должен произвести хеширование (проверку) старой папки (если не производит сам - помогите ему сделать это), и будет докачивать только те серии, которых у вас ещё нет. Старые серии при этом не удаляются, а продолжают раздаваться!
Eсли вы уже удалили старые серии, то предотвратить повторную закачку старых серий можно, отжав галочку в соответсвующих местах при запуске нового торрента. По возможности, желательно не удалять старые серии как можно дольше, чтобы релизёр не столько продолжал раздавать старые серии, а смог сконцентрироваться на новых.

pb.wtf



Скачать Старые кадры через торрент https://img11.lostpic.net/2020/10/05/588c537f645c2f9b883cf1f24eb106b2.jpg Скачать фильм Старые кадры через торрент бесплантно в хорошем качестве Описание: Александра Токарева, опытный сотрудник Следственного комитета, из-за дурацкой случайности сорвала важную операцию. Начальство ... 10 10 5
Торрент: Зарегистрирован [2020-10-17 08:15] · скачан: 8 раз
Статус: √ проверено
Размер: 13.03 GB
Как cкачать? Как скачать Старые кадры через торрент | qTorrent

% Раздел Тема Автор DL S | L
Наши сериалы [ 26.72 GB ] Старые кадры / Сезон: 1 / Серии: 1-20 из 20 [2020 WEBRip 720p] bober100 Скачать
3 | 0
Наши сериалы [ 15.86 GB ] Старые кадры / Сезон: 1 / Серии: 1-20 из 20 [2020 WEBRip-AVC] bober100 Скачать
4 | 1
Наши сериалы [ 44.3 GB ] Старые кадры / Сезон: 1 / Серии: 1-20 из 20 [2020 WEBRip 1080p] bober100 Скачать
5 | 2
Наши сериалы [ 12 GB ] Старые кадры / Сезон: 1 / Серии: 1-20 из 20 [2020 SATRip] bober100 Скачать
7 | 0

28-11-2019 20:33  

Отключить всю рекламу на сайте

    Дорогой пользователь! Огромная просьба, поблагодарите релизера, оцените раздачу и оставьте свои комментарий, если Вы скачали Старые кадры через торрент бесплатно! Внесите свою лепту в развитие PiratBit!
    Комментировать посты могут только пользователи прошедшие не сложную регистрацию
    Показать сообщения:    

    Старые кадры через торрент
    Скачать бесплатно Старые кадры
    Старые кадры скачать торрент
    Старые кадры смотреть онлайн
    Cкачать фильм Старые кадры бесплатно
    Старые кадры скачать торрент в хорошем качестве
    Старые кадры смотреть онлайн бесплатно в хорошем качестве


    Вы не можете начинать темы
    Вы не можете отвечать на сообщения
    Вы не можете редактировать свои сообщения
    Вы не можете удалять свои сообщения
    Вы не можете голосовать в опросах
    Вы не можете прикреплять файлы к сообщениям
    Вы можете скачивать файлы