Ссылка на приватное зеркало нашего сайта всего за 1$. Внимание количество ограничено!!!

2 сезон

iTunes

1 сезон

1

iTunes

iTunes

iTunes

1 сезон

RePack

30

ИГРА 18+

pack

ВАЖНО

!!Акция!!

Alien_RageХит недели

RePack

MK11
pack

Забери бонус

RePack

jed

!!Акция!!

Alien_Rage

RePack

fifa19

RePack

Assassins Creed: Odyssey

RePack

NEED FOR SPEED™ PAYBACK

4 сезон

9 сезон

Бесстыжие 9 сезон

Все сериалы

все сериалы на PB.wtf

RePack

FAR CRY 5
  

Некст / Next / Сезон: 1 / Серии: 1-3 из 10 (Тим Хантер, Гленн Фикарра, Аманда Марсалис) [2020, Фантастика, драма, криминал, WEBRip] MVO [HDRezka Studio] pb.wtf

Некст через торрент pb.wtf

Раздают: 1 [ 0 KB/s ]
Размер: 1.58 GB | Добавлен: 7 д. назад | Торрент скачан:23 раза
Скачать  

07-10-2020 14:09 Некст Скачать торрент  

Некст | Next
Год выпуска: 2020
Страна: США
Выпущено: 20th Century Fox Television, Fox Entertainment, Zaftig Films
Жанр: Фантастика, драма, криминал
Продолжительность: ~00:45:00 серия
Перевод: Профессиональный (многоголосый) | HDRezka Studio
Субтитры: Русские (форсированные, вшитые)

Режиссер: Тим Хантер, Гленн Фикарра, Аманда Марсалис

rating

В ролях: Ивэн Уиттен, Дэнн Финк, Фернанда Андраде, Лиззи Каппуччино, Ив Харлоу, Джон Слэттери, Майкл Мосли, Джон Кассини, Эдриан Беллани, Аарон Мотен

Описание: Пионер Кремниевой долины Пол Леблан сделал состояние на технологических инновациях, изменяющих наш мир, но в угоду призванию он отдалился от людей вокруг, включая собственную дочь, Эбби, и недальновидного брата Теда, который теперь управляет компанией Пола. Когда выясняется, что один из созданных Лебланом высокотехнологичных гаджетов на базе искусственного интеллекта «НЕКСТ» может обречь человечество на апокалипсис, Пол пытается закрыть проект, но слишком поздно: собственный брат отстранил его от руководства, и теперь Пол не знает, как остановить грядущую катастрофу.

Качество: WEBRip
Формат: AVI

Видео: XviD, 720x400 (16:9), 23,976 fps, ~1500 kbps
Аудио: MP3, 48 kHz, 2 ch, 192 kbps
скриншот  скриншот  скриншот  скриншот  

Полное имя : neXt.2020.S01.WEBRip.Rus.HDRezka\neXt.2020.S01E01.WEBRip.Rus.HDRezka.JuSSiKa.avi
Формат : AVI
Формат/Информация : Audio Video Interleave
Размер файла : 550 Мбайт
Продолжительность : 45 м. 26 с.
Общий поток : 1693 Кбит/сек
Программа кодирования : VirtualDubMod 1.5.10.3 (build 2550/release)
Библиотека кодирования : VirtualDubMod build 2550/release

Видео
Идентификатор : 0
Формат : MPEG-4 Visual
Профиль формата : Advanced Simple@L5
Настройки формата : BVOP1
Параметр BVOP формата : 1
Параметр QPel формата : Нет
Параметр GMC формата : Без точки перехода
Параметр матрицы формата : Default (H.263)
Идентификатор кодека : XVID
Идентификатор кодека/Подсказка : XviD
Продолжительность : 45 м. 26 с.
Битрейт : 1492 Кбит/сек
Ширина : 720 пикселей
Высота : 400 пикселей
Соотношение сторон : 16:9
Частота кадров : 23,976 (24000/1001) кадра/сек
Частота кадров в оригинале : 23,976 (23976/1000) кадра/сек
Цветовое пространство : YUV
Субдискретизация насыщенности : 4:2:0
Битовая глубина : 8 бит
Тип развёртки : Прогрессивная
Метод сжатия : С потерями
Бит/(Пиксели*Кадры) : 0.216
Размер потока : 485 Мбайт (88%)
Библиотека кодирования : XviD 1.2.1 (UTC 2008-12-04)

Аудио
Идентификатор : 1
Формат : MPEG Audio
Версия формата : Version 1
Профиль формата : Layer 3
Идентификатор кодека : 55
Идентификатор кодека/Подсказка : MP3
Продолжительность : 45 м. 26 с.
Вид битрейта : Постоянный
Битрейт : 192 Кбит/сек
Каналы : 2 канала
Частота : 48,0 КГц
Метод сжатия : С потерями
Размер потока : 62,4 Мбайт (11%)
Выравнивание : Соединение по промежуткам
Продолжительность промежутка : 42 мс. (1,00 видеокадр)
Время предзагрузки промежутка : 504 мс.

Когда раздача ведётся путём добавления новых серий, при каждом добавлении создётся новый торрент. Чтобы начать докачку новой серии, пользователям необходимо сделать следующее:
(1) остановить скачивание,
(2) удалить старый торрент у себя из клиента (старые серии удалять не надо),
(3) скачать новый торрент и запустить его у себя в клиенте вместо старого, при этом указать клиенту путь в старую папку, куда и должно происходить скачивание новых серий.
Ваш клиент при этом должен произвести хеширование (проверку) старой папки (если не производит сам - помогите ему сделать это), и будет докачивать только те серии, которых у вас ещё нет. Старые серии при этом не удаляются, а продолжают раздаваться!
Eсли вы уже удалили старые серии, то предотвратить повторную закачку старых серий можно, отжав галочку в соответсвующих местах при запуске нового торрента. По возможности, желательно не удалять старые серии как можно дольше, чтобы релизёр не столько продолжал раздавать старые серии, а смог сконцентрироваться на новых.

pb.wtf



Скачать Некст через торрент https://i114.fastpic.ru/big/2020/1007/ad/fe4297a66bda9214eabe8ea0020e74ad.png Скачать фильм Некст через торрент бесплантно в хорошем качестве Описание: Пионер Кремниевой долины Пол Леблан сделал состояние на технологических инновациях, изменяющих наш мир, но в угоду призванию он ... 10 10 3
Торрент: Зарегистрирован [2020-10-16 04:16] · скачан: 23 раз
Статус: √ проверено
Размер: 1.58 GB
Как cкачать? Как скачать Некст через торрент | qTorrent

28-11-2019 20:33  

Отключить всю рекламу на сайте

17-10-2020 20:06 Некст Скачать торрент  

Зачем придумывать что то новое,когда можно вспомнить хорошо забытое старое ,а собственно главного злодея человечества будущего из старого доброго Терминатора,Скайнет здесь его зовут Некст,ну что могу сказать,первые три серии зашли на ура,надеюсь дальше будет не хуже.pb.wtf



    Дорогой пользователь! Огромная просьба, поблагодарите релизера, оцените раздачу и оставьте свои комментарий, если Вы скачали Некст через торрент бесплатно! Внесите свою лепту в развитие PiratBit!
    Комментировать посты могут только пользователи прошедшие не сложную регистрацию
    Показать сообщения:    

    Некст через торрент
    Скачать бесплатно Некст
    Некст скачать торрент
    Некст смотреть онлайн
    Cкачать фильм Некст бесплатно
    Некст скачать торрент в хорошем качестве
    Некст смотреть онлайн бесплатно в хорошем качестве


    Вы не можете начинать темы
    Вы не можете отвечать на сообщения
    Вы не можете редактировать свои сообщения
    Вы не можете удалять свои сообщения
    Вы не можете голосовать в опросах
    Вы не можете прикреплять файлы к сообщениям
    Вы можете скачивать файлы