2 сезон

iTunes

MVO

1

2 сезон

iTunes

iTunes

1 сезон

RePack

30

Новинка

ВАЖНО

ИГРА 18+

pack

RePack

MK11
pack

Легкие деньги

RePack

jed

RePack

fifa19

RePack

RDR2

RePack

NEED FOR SPEED™ PAYBACK

4 сезон

9 сезон

Бесстыжие 9 сезон

Все сериалы

все сериалы на PB.wtf

RePack

FAR CRY 5

Anonymous, доброй ночи, мы не успеваем собрать деньги на оплату серверов за декабрь и январь, помогите нам пожалуйста в это трудное время. В качестве благодарности мы отключим Вам всю рекламу на сайте (укажите свой ник в строку Ваше имя)!

×
  
Magnet ссылка

Папина дочка / College Road Trip (Роджер Камбл) [2008 г., Комедия, драма, приключения, семейный, BDRip 720p / 60 FPS, Профессиональный (многоголосый)] от R.G. HD-Films pb.wtf

Папина дочка через торрент pb.wtf

Раздают: 1 [ 0 KB/s ]
Размер: 2.61 GB | Добавлен: 3 мес. 14 д. назад | Торрент скачан:27 раз
Скачать  

07-10-2020 15:19 Папина дочка Скачать торрент  

Папина дочка / College Road Trip
Год выпуска: 2008
Страна: США
Жанр: Комедия, драма, приключения, семейный
Продолжительность: 01:23:12
Перевод: Профессиональный (многоголосый)
Субтитры: Russian, Ukrainian, English

Режиссер: Роджер Камбл

Премьера в мире: 3 марта 2008

rating

В ролях: Мартин Лоуренс, Рэйвен, Ким Уитли, Адам ЛеФевр, Юджин Джонс, Бренда Сонг, Марго Харшман, Лукас Грабил, Мэттью Шлейн, Эшайя Дрэйпер, Уилл Сассо, Дженева Карр, На’Кия Белл Смит, Джош Мейерс, Лонни Росс, Донни Осмонд, Молли Эфраим, Кристиан Кордула, Николас Лейтер Меле, Джессика Ст. Клер, Меган Рафферти, Джейсон Колотурос, Лорен Санчес

Описание: Недавняя школьница лелеет амбициозные планы поступить в самый лучший юридический институт, но перед тем как подавать документы, хочет сама объездить все подходящие учебные заведения и выбрать место будущей учебы. Дело осложняется, когда сопровождать абитуриентку вызывается ее отец — профессиональный полицейский, слишком усердно старающийся оградить свое чадо от любых волнений и проблем. Будь его воля — вообще бы никуда из дома не отпустил!

Качество: BDRip 720p / 60 FPS
Формат: MKV
Видео кодек: H.264
Аудио кодек: AC3
Видео: x264, 1280 x 536 ( 2,40:1 ), 4100 kbps, 60,000 fps, ( 0.100 bpp)
Аудио#1: Русский, AC-3, 48.0 KHz, 6 ch, 384 Kbps MVO
Релиз от: Автор рипа: slaventi-69
x264 [info]: frame I:1575 Avg QP:18.18 size: 77279
x264 [info]: frame P:71564 Avg QP:19.11 size: 17537
x264 [info]: frame B:226082 Avg QP:22.07 size: 5217
x264 [info]: consecutive B-frames: 2.7% 2.8% 8.2% 15.8% 57.2% 13.3%


Общее
Уникальный идентификатор : 240362467338901663867945305950267339753 (0xB4D420990ED5C9421A38A2DD06CB73E9)
Полное имя : F:\College.Road.Trip.(2008).BDRip.720p.(60 Fps).mkv
Формат : Matroska
Версия формата : Version 4
Размер файла : 2,61 Гбайт
Продолжительность : 1 ч. 23 м.
Общий поток : 4489 Кбит/сек
Название фильма : Папина дочка / College Road Trip (2008) BDRip 720p (60 Fps)
Дата кодирования : UTC 2020-09-24 15:17:26
Программа кодирования : mkvmerge v35.0.0 ('All The Love In The World') 64-bit
Библиотека кодирования : libebml v1.3.9 + libmatroska v1.5.2

Видео
Идентификатор : 1
Формат : AVC
Формат/Информация : Advanced Video Codec
Профиль формата : High@L4.1
Настройки формата : CABAC / 8 Ref Frames
Параметр CABAC формата : Да
Параметр RefFrames формата : 8 кадров
Идентификатор кодека : V_MPEG4/ISO/AVC
Продолжительность : 1 ч. 23 м.
Битрейт : 4100 Кбит/сек
Ширина : 1280 пикселей
Высота : 536 пикселей
Соотношение сторон : 2,40:1
Режим частоты кадров : Постоянный
Частота кадров : 60,000 кадров/сек
Цветовое пространство : YUV
Субдискретизация насыщенности : 4:2:0
Битовая глубина : 8 бит
Тип развёртки : Прогрессивная
Бит/(Пиксели*Кадры) : 0.100
Размер потока : 2,38 Гбайт (91%)
Заголовок : slaventi-69 ( R.G. HD-Films | 60 fps )
Библиотека кодирования : x264 core 130 r2273 b3065e6
Настройки программы : cabac=1 / ref=8 / deblock=1:-1:-1 / analyse=0x3:0x113 / me=umh / subme=9 / psy=1 / psy_rd=1.00:0.00 / mixed_ref=1 / me_range=32 / chroma_me=1 / trellis=2 / 8x8dct=1 / cqm=0 / deadzone=21,11 / fast_pskip=1 / chroma_qp_offset=-2 / threads=10 / lookahead_threads=4 / sliced_threads=0 / nr=0 / decimate=1 / interlaced=0 / bluray_compat=0 / constrained_intra=0 / bframes=5 / b_pyramid=2 / b_adapt=2 / b_bias=0 / direct=1 / weightb=1 / open_gop=0 / weightp=2 / keyint=600 / keyint_min=60 / scenecut=40 / intra_refresh=0 / rc=crf / mbtree=0 / crf=17.7 / qcomp=0.60 / qpmin=0 / qpmax=69 / qpstep=4 / ip_ratio=1.40 / pb_ratio=1.30 / aq=1:1.00
Язык : English
Default : Да
Forced : Нет

Аудио
Идентификатор : 2
Формат : AC-3
Формат/Информация : Audio Coding 3
Коммерческое название : Dolby Digital
Идентификатор кодека : A_AC3
Продолжительность : 1 ч. 23 м.
Вид битрейта : Постоянный
Битрейт : 384 Кбит/сек
Каналы : 6 каналов
Channel layout : L R C LFE Ls Rs
Частота : 48,0 КГц
Частота кадров : 31,250 кадров/сек (1536 SPF)
Битовая глубина : 16 бит
Метод сжатия : С потерями
Размер потока : 228 Мбайт (9%)
Заголовок : MVO
Язык : Russian
ServiceKind/String : Complete Main
Default : Да
Forced : Нет

Текст #1
Идентификатор : 3
Формат : UTF-8
Идентификатор кодека : S_TEXT/UTF8
Идентификатор кодека/Информация : UTF-8 Plain Text
Продолжительность : 1 ч. 17 м.
Битрейт : 0 бит/сек
ElementCount : 11
Размер потока : 407 байт (0%)
Заголовок : FORCED
Язык : Russian
Default : Нет
Forced : Нет

Текст #2
Идентификатор : 4
Формат : UTF-8
Идентификатор кодека : S_TEXT/UTF8
Идентификатор кодека/Информация : UTF-8 Plain Text
Продолжительность : 1 ч. 17 м.
Битрейт : 107 бит/сек
ElementCount : 1081
Размер потока : 61,3 Кбайт (0%)
Заголовок : FULL
Язык : Russian
Default : Нет
Forced : Нет

Текст #3
Идентификатор : 5
Формат : UTF-8
Идентификатор кодека : S_TEXT/UTF8
Идентификатор кодека/Информация : UTF-8 Plain Text
Продолжительность : 1 ч. 17 м.
Битрейт : 115 бит/сек
ElementCount : 1082
Размер потока : 65,8 Кбайт (0%)
Язык : Ukrainian
Default : Нет
Forced : Нет

Текст #4
Идентификатор : 6
Формат : UTF-8
Идентификатор кодека : S_TEXT/UTF8
Идентификатор кодека/Информация : UTF-8 Plain Text
Продолжительность : 1 ч. 22 м.
Битрейт : 80 бит/сек
ElementCount : 1457
Размер потока : 48,7 Кбайт (0%)
Язык : English
Default : Нет
Forced : Нет

Просьба к переливающим на другие сайты, в оформлении указывайте пожалуйста авторство группы R.G. HD-Films pb.wtf



Скачать Папина дочка через торрент https://img11.lostpic.net/2020/10/07/bca66275ca9c84d0957be7a840f37e0b.jpg Скачать фильм Папина дочка через торрент бесплантно в хорошем качестве Описание: Недавняя школьница лелеет амбициозные планы поступить в самый лучший юридический институт, но перед тем как подавать документы, ... 10 10 4
Info! Золотая раздача, скачанное не засчитывается.
Торрент: Зарегистрирован [2020-10-07 15:19] · скачан: 27 раз
Статус: √ проверено
Размер: 2.61 GB
Как cкачать? Как скачать Папина дочка через торрент | UTorrent

28-11-2019 20:33  

Отключить всю рекламу на сайте

07-10-2020 17:16 Папина дочка Скачать торрент  

Спасибо! Большая мамочка чую уже не за горами! pb.wtf



07-10-2020 17:20 Папина дочка Скачать торрент  

михакруг писал(а):

Спасибо! Большая мамочка чую уже не за горами!

Таки "Да". Я тоже Чую.
И Спасибо за Золото.pb.wtf



    Дорогой пользователь! Огромная просьба, поблагодарите релизера, оцените раздачу и оставьте свои комментарий, если Вы скачали Папина дочка через торрент бесплатно! Внесите свою лепту в развитие PiratBit!
    Комментировать посты могут только пользователи прошедшие не сложную регистрацию
    Показать сообщения:    

    Папина дочка через торрент
    Скачать бесплатно Папина дочка
    Папина дочка скачать торрент
    Папина дочка смотреть онлайн
    Cкачать фильм Папина дочка бесплатно
    Папина дочка скачать торрент в хорошем качестве
    Папина дочка смотреть онлайн бесплатно в хорошем качестве


    Вы не можете начинать темы
    Вы не можете отвечать на сообщения
    Вы не можете редактировать свои сообщения
    Вы не можете удалять свои сообщения
    Вы не можете голосовать в опросах
    Вы не можете прикреплять файлы к сообщениям
    Вы можете скачивать файлы