2 сезон

iTunes

MVO

1

2 сезон

iTunes

iTunes

1 сезон

RePack

30

Новинка

ВАЖНО

ИГРА 18+

pack

RePack

MK11
pack

Легкие деньги

RePack

jed

RePack

fifa19

RePack

RDR2

RePack

NEED FOR SPEED™ PAYBACK

4 сезон

9 сезон

Бесстыжие 9 сезон

Все сериалы

все сериалы на PB.wtf

RePack

FAR CRY 5

Anonymous, доброй ночи, мы не успеваем собрать деньги на оплату серверов за декабрь и январь, помогите нам пожалуйста в это трудное время. В качестве благодарности мы отключим Вам всю рекламу на сайте (укажите свой ник в строку Ваше имя)!

×
  
Magnet ссылка

Трагедия в Уэйко / Waco / Сезон: 1 / Серия: 1-6 из 6 (Джон Эрик Даудл, Дэнни Гордон) [2018, триллер, драма, криминал, WEB-DL 1080p] DVO [Кубик в Кубе] pb.wtf

Трагедия в Уэйко через торрент pb.wtf

Раздают: 1 [ 0 KB/s ]
Размер: 15.87 GB | Добавлен: 3 мес. 8 д. назад | Торрент скачан:15 раз
Скачать  

07-10-2020 17:46 Трагедия в Уэйко Скачать торрент  

Трагедия в Уэйко | Waco
Год выпуска: 2018
Страна: США
Выпущено: Paramount NetWork, Santa Fe Studios, Santa Fe, New Mexico
Жанр: триллер, драма, криминал
Продолжительность: ~ 00:45:00
Перевод: Профессиональный (двухголосый) | Кубик в Кубе
Субтитры: Русские (PhysKids), английские

Режиссер: Джон Эрик Даудл, Дэнни Гордон

rating


В ролях: Тейлор Китч, Майкл Шеннон, Демор Барнс, Мелисса Бенойст, Рори Калкин, Дункан Джойнер, Джон Легуизамо, Анника Маркс, Андреа Райзборо, Пол Спаркс

Описание: Минисериал основан на трагических событиях весны 1993 года, когда жители ранчо «Маунт Кармел» были заподозрены в незаконном хранении оружия. В ходе облавы завязалась перестрелка, которая привела к вооруженному противостоянию между сектантами и агентами ФБР, продлившемуся 51 день. За

Качество: WEB-DL 1080p
Формат: MKV

Видео: 1920x1080 at 23.976 fps, MPEG-4 AVC, ~7 600 kbps avg
Аудио#1 Russian: 48 kHz, AC3, 2/0 (L,R) ch, ~192 kbps |Кубик в Кубе|
Аудио#2 English: 48 kHz, ЕAC3, 2/0 (L,R) ch, ~224 kbps
скриншот  скриншот  скриншот  скриншот  

General
Unique ID : 27091022911646185317261689640124004390 (0x14618A8DB81799521835938CDF71B826)
Complete name : E:\Video\Serials\Waco (1080p)\Waco.2018.S01E01.1080p.WEB-DL.KvK.mkv
Format : Matroska
Format version : Version 4
File size : 2.52 GiB
Duration : 47 min 55 s
Overall bit rate mode : Variable
Overall bit rate : 7 519 kb/s
Movie name : Waco - Visions and Omens (S01E01)
Encoded date : UTC 2020-10-07 16:11:09
Writing application : mkvmerge v50.0.0 ('Awakenings') 64-bit
Writing library : libebml v1.4.0 + libmatroska v1.6.2

Video
ID : 1
Format : AVC
Format/Info : Advanced Video Codec
Format profile : High@L4
Format settings : CABAC / 4 Ref Frames
Format settings, CABAC : Yes
Format settings, Reference frames : 4 frames
Codec ID : V_MPEG4/ISO/AVC
Duration : 47 min 55 s
Bit rate mode : Variable
Bit rate : 7 101 kb/s
Maximum bit rate : 15.0 Mb/s
Width : 1 920 pixels
Height : 1 080 pixels
Display aspect ratio : 16:9
Frame rate mode : Constant
Frame rate : 23.976 (24000/1001) FPS
Color space : YUV
Chroma subsampling : 4:2:0
Bit depth : 8 bits
Scan type : Progressive
Bits/(Pixel*Frame) : 0.143
Stream size : 2.38 GiB (94%)
Default : Yes
Forced : No
Color range : Limited
Color primaries : BT.709
Transfer characteristics : BT.709
Matrix coefficients : BT.709

Audio #1
ID : 2
Format : AC-3
Format/Info : Audio Coding 3
Commercial name : Dolby Digital
Codec ID : A_AC3
Duration : 47 min 55 s
Bit rate mode : Constant
Bit rate : 192 kb/s
Channel(s) : 2 channels
Channel layout : L R
Sampling rate : 48.0 kHz
Frame rate : 31.250 FPS (1536 SPF)
Compression mode : Lossy
Stream size : 65.8 MiB (3%)
Title : Кубик в кубе
Language : Russian
Service kind : Complete Main
Default : Yes
Forced : No

Audio #2
ID : 3
Format : E-AC-3
Format/Info : Enhanced AC-3
Commercial name : Dolby Digital Plus
Codec ID : A_EAC3
Duration : 47 min 55 s
Bit rate mode : Constant
Bit rate : 224 kb/s
Channel(s) : 2 channels
Channel layout : L R
Sampling rate : 48.0 kHz
Frame rate : 31.250 FPS (1536 SPF)
Compression mode : Lossy
Stream size : 76.8 MiB (3%)
Title : Original
Language : English
Service kind : Complete Main
Default : No
Forced : No

Text #1
ID : 4
Format : UTF-8
Codec ID : S_TEXT/UTF8
Codec ID/Info : UTF-8 Plain Text
Duration : 46 min 22 s
Bit rate : 107 b/s
Count of elements : 633
Stream size : 36.4 KiB (0%)
Title : Русские (PhysKids)
Language : Russian
Default : No
Forced : No

Text #2
ID : 5
Format : UTF-8
Codec ID : S_TEXT/UTF8
Codec ID/Info : UTF-8 Plain Text
Duration : 47 min 7 s
Bit rate : 69 b/s
Count of elements : 678
Stream size : 23.8 KiB (0%)
Title : Original
Language : English
Default : No
Forced : No

pb.wtf



Скачать Трагедия в Уэйко через торрент http://a.radikal.ru/a42/1801/5b/a49be5065ef8.jpg Скачать фильм Трагедия в Уэйко через торрент бесплантно в хорошем качестве Описание: Минисериал основан на трагических событиях весны 1993 года, когда жители ранчо «Маунт Кармел» были заподозрены в незаконном ... 10 10 4
Торрент: Зарегистрирован [2020-10-07 17:46] · скачан: 15 раз
Статус: √ проверено
Размер: 15.87 GB
Как cкачать? Как скачать Трагедия в Уэйко через торрент | UTorrent

% Раздел Тема Автор DL S | L
Зарубежные сериалы [ 6.08 GB ] Трагедия в Уэйко / Waco / Сезон: 1 / Серии: 1-6 из 6 [2018 WEBRip 720p] MVO [Jaskier] bober100 Скачать
1 | 0
Зарубежные сериалы [ 15.86 GB ] Трагедия в Уэйко / Waco / Сезон: 1 / Серии: 1-6 из 6 [2018 WEBRip 1080p] MVO [Jaskier] bober100 Скачать
1 | 0
Зарубежные сериалы [ 3.62 GB ] Трагедия в Уэйко / Waco / Сезон: 1 / Серии: 1-6 из 6 [2018 WEBRip] MVO [Jaskier] bober100 Скачать
1 | 0
Зарубежные сериалы [ 15.94 GB ] Трагедия в Уэйко / Waco / Сезон: 1 / Серии 1-6 из 6 [2018 WEB-DL 1080p] [MVO] killermax2013 Скачать
1 | 0
Зарубежные сериалы [ 15.89 GB ] Трагедия в Уэйко / Waco / Сезон: 1 / Серия: 1-6 из 6 [2018 WEB-DL 1080p] MVO [NewStudio] bober100 Скачать
1 | 0
Зарубежные сериалы [ 5.8 GB ] Трагедия в Уэйко / Waco / Сезон: 1 / Серии: 1-6 из 6 [2018 WEB-DL 720p] MVO [NewStudio] bober100 Скачать
1 | 0
Зарубежные сериалы [ 3.63 GB ] Трагедия в Уэйко / Waco / Сезон: 1 / Серии: 1-6 из 6 [2018 WEB-DLRip] MVO [NewStudio] bober100 Скачать
1 | 0

28-11-2019 20:33  

Отключить всю рекламу на сайте

    Дорогой пользователь! Огромная просьба, поблагодарите релизера, оцените раздачу и оставьте свои комментарий, если Вы скачали Трагедия в Уэйко через торрент бесплатно! Внесите свою лепту в развитие PiratBit!
    Комментировать посты могут только пользователи прошедшие не сложную регистрацию
    Показать сообщения:    

    Трагедия в Уэйко через торрент
    Скачать бесплатно Трагедия в Уэйко
    Трагедия в Уэйко скачать торрент
    Трагедия в Уэйко смотреть онлайн
    Cкачать фильм Трагедия в Уэйко бесплатно
    Трагедия в Уэйко скачать торрент в хорошем качестве
    Трагедия в Уэйко смотреть онлайн бесплатно в хорошем качестве


    Вы не можете начинать темы
    Вы не можете отвечать на сообщения
    Вы не можете редактировать свои сообщения
    Вы не можете удалять свои сообщения
    Вы не можете голосовать в опросах
    Вы не можете прикреплять файлы к сообщениям
    Вы можете скачивать файлы