2 сезон

iTunes

MVO

1

2 сезон

iTunes

iTunes

1 сезон

RePack

30

Новинка

ВАЖНО

ИГРА 18+

pack

RePack

MK11
pack

Легкие деньги

RePack

jed

RePack

fifa19

RePack

RDR2

RePack

NEED FOR SPEED™ PAYBACK

4 сезон

9 сезон

Бесстыжие 9 сезон

Все сериалы

все сериалы на PB.wtf

RePack

FAR CRY 5

Anonymous, добрый день, мы не успеваем собрать деньги на оплату серверов за декабрь и январь, помогите нам пожалуйста в это трудное время. В качестве благодарности мы отключим Вам всю рекламу на сайте (укажите свой ник в строку Ваше имя)!

×
  
Magnet ссылка

Ограбление президента / В поисках Стива Маккуина / Finding Steve McQueen (Марк Стивен Джонсон) [2018, Криминал, мелодрама, BDRip-AVC] DUB [iTunes] pb.wtf

Ограбление президента через торрент pb.wtf

Раздают: 4 [ 0 KB/s ]
Размер: 1.41 GB | Добавлен: 3 мес. 15 д. назад | Торрент скачан:132 раза
Скачать  

08-10-2020 04:06 Ограбление президента Скачать торрент  

Ограбление президента | В поисках Стива Маккуина | Finding Steve McQueen
Год выпуска: 2018
Страна: США
Студия: AMBI Group, BondIt Media Capital, Identity Films
Жанр: Криминал, мелодрама
Продолжительность: 01:31:35
Перевод: Дублированный | iTunes
Субтитры: Русские (Forced, Full)

Режиссер: Марк Стивен Джонсон

rating

В ролях: Трэвис Фиммел, Уильям Фихтнер, Рэйчел Тейлор, Форест Уитакер, Лили Рэйб, Джейк Вири, Рис Койро, Джон Финн, Луис Ломбарди, Джоя Либардони

Описание: Действия фильма происходят в 1972 году накануне очередных выборов президента США. Шайка преступников решает совершить ограбление века и завладеть незаконным предвыборным фондом Ричарда Никсона. На кону оказывается огромная сума в тридцать миллионов долларов. Чтобы добиться успеха, преступникам необходимо продумать каждый свой шаг, каждое дыхание. Им удается придумать безупречный план, но в момент проведения операции, в дело вмешивается его величество случай. В итоге преступники не только упускают возможность обогатиться, но и оказываются в очень сложном положении. Теперь они готовы сделать все, чтобы не попасть в руки полиции.

Качество: BDRip-AVC
Формат: MKV

Видео: 864x466 (1.85:1), 23.976 fps, MPEG-4 AVC ~ 1831 Kbps avg, 0.190 bit/pixel
Аудио: AC3, 48 kHz, 6 ch, ~384.00 kbps avg | русский | iTunes
скриншот  скриншот  скриншот  скриншот  скриншот  

Общее
Уникальный идентификатор : 64260441247608824891188677743645572232 (0x30581C5DA3CCE9E984EA0B6723103C88)
Полное имя : Finding.Steve.McQueen.2019.BDRip.1.41Gb.x264.mkv
Формат : Matroska
Версия формата : Version 4
Размер файла : 1,41 Гбайт
Продолжительность : 1 ч. 31 м.
Общий поток : 2 212 Кбит/сек
Название фильма : Ограбление президента / В поисках Стива Маккуина / Finding Steve McQueen (2019)
Дата кодирования : UTC 2020-10-07 20:31:55
Программа кодирования : mkvmerge v47.0.0 ('Black Flag') 64-bit
Библиотека кодирования : libebml v1.3.10 + libmatroska v1.5.2
Обложка : Yes
Attachments : cover.jpg

Видео
Идентификатор : 1
Формат : AVC
Формат/Информация : Advanced Video Codec
Профиль формата : High@L4.1
Настройки формата : CABAC / 11 Ref Frames
Параметр CABAC формата : Да
Параметр RefFrames формата : 11 кадров
Идентификатор кодека : V_MPEG4/ISO/AVC
Продолжительность : 1 ч. 31 м.
Битрейт : 1 831 Кбит/сек
Ширина : 864 пикселя
Высота : 466 пикселей
Соотношение сторон : 1,85:1
Режим частоты кадров : Постоянный
Частота кадров : 23,976 (24000/1001) кадра/сек
Цветовое пространство : YUV
Субдискретизация насыщенности : 4:2:0
Битовая глубина : 8 бит
Тип развёртки : Прогрессивная
Бит/(Пиксели*Кадры) : 0.190
Размер потока : 1,17 Гбайт (83%)
Заголовок : #stillet
Библиотека кодирования : x264 core 152 r2851bm ba24899
Настройки программы : cabac=1 / ref=11 / deblock=1:-2:-2 / analyse=0x3:0x113 / me=umh / subme=10 / psy=1 / psy_rd=1.00:0.15 / mixed_ref=1 / me_range=32 / chroma_me=1 / trellis=2 / 8x8dct=1 / cqm=0 / deadzone=21,11 / fast_pskip=0 / chroma_qp_offset=-3 / threads=8 / lookahead_threads=3 / sliced_threads=0 / nr=0 / decimate=0 / interlaced=0 / bluray_compat=0 / constrained_intra=0 / bframes=12 / b_pyramid=2 / b_adapt=2 / b_bias=0 / direct=3 / weightb=1 / open_gop=0 / weightp=2 / keyint=240 / keyint_min=23 / scenecut=40 / intra_refresh=0 / rc=2pass / mbtree=0 / bitrate=1831 / ratetol=1.0 / qcomp=0.60 / qpmin=0 / qpmax=69 / qpstep=4 / cplxblur=20.0 / qblur=0.5 / ip_ratio=1.40 / pb_ratio=1.30 / aq=1:1.00
Язык : English
Default : Да
Forced : Нет

Аудио
Идентификатор : 2
Формат : AC-3
Формат/Информация : Audio Coding 3
Коммерческое название : Dolby Digital
Идентификатор кодека : A_AC3
Продолжительность : 1 ч. 31 м.
Вид битрейта : Постоянный
Битрейт : 384 Кбит/сек
Каналы : 6 каналов
Channel layout : L R C LFE Ls Rs
Частота : 48,0 КГц
Частота кадров : 31,250 кадров/сек (1536 SPF)
Метод сжатия : С потерями
Размер потока : 252 Мбайт (17%)
Заголовок : DUB iTunes
Язык : Russian
Service kind : Complete Main
Default : Да
Forced : Да

Текст #1
Идентификатор : 3
Формат : UTF-8
Идентификатор кодека : S_TEXT/UTF8
Идентификатор кодека/Информация : UTF-8 Plain Text
Продолжительность : 1 ч. 27 м.
Битрейт : 3 бит/сек
Count of elements : 34
Размер потока : 2,34 Кбайт (0%)
Заголовок : Forced
Язык : Russian
Default : Да
Forced : Да

Текст #2
Идентификатор : 4
Формат : UTF-8
Идентификатор кодека : S_TEXT/UTF8
Идентификатор кодека/Информация : UTF-8 Plain Text
Продолжительность : 1 ч. 27 м.
Битрейт : 77 бит/сек
Count of elements : 1326
Размер потока : 49,9 Кбайт (0%)
Заголовок : Full
Язык : Russian
Default : Нет
Forced : Нет

Меню
00:00:00.000 : en:Chapter 1
00:05:08.266 : en:Chapter 2
00:11:28.271 : en:Chapter 3
00:16:36.746 : en:Chapter 4
00:21:04.054 : en:Chapter 5
00:30:22.612 : en:Chapter 6
00:36:51.960 : en:Chapter 7
00:43:00.161 : en:Chapter 8
00:47:52.787 : en:Chapter 9
00:55:21.735 : en:Chapter 10
01:01:15.755 : en:Chapter 11
01:07:14.447 : en:Chapter 12
01:11:45.384 : en:Chapter 13
01:15:02.873 : en:Chapter 14
01:22:23.856 : en:Chapter 15
01:28:33.808 : en:Chapter 16

pb.wtf



Скачать Ограбление президента через торрент https://c.radikal.ru/c21/1908/c5/09418d195578.jpg Скачать фильм Ограбление президента через торрент бесплантно в хорошем качестве Описание: Действия фильма происходят в 1972 году накануне очередных выборов президента США. Шайка преступников решает совершить ограбление ... 10 10 2
Торрент: Зарегистрирован [2020-10-08 04:06] · скачан: 132 раз
Статус: √ проверено
Размер: 1.41 GB
Как cкачать? Как скачать Ограбление президента через торрент | UTorrent

% Раздел Тема Автор DL S | L
Фильмы 2018 [DVDrip, WEB-DLRip, HDrip] (DUB, MVO) [ 1.42 GB ] Ограбление президента / В поисках Стива Маккуина / Finding Steve McQueen [2018 BDRip] - Twi7ter Скачать
10 | 0
Видео для КПК и Смартфонов [ 348 MB ] Ограбление президента / В поисках Стива Маккуина / Finding Steve McQueen [2019 Мело HDRip КПК] Dub sergey82 Скачать
1 | 0
Фильмы 2018 [DVDrip, WEB-DLRip, HDrip] (DUB, MVO) [ 2.69 GB ] Ограбление президента / В поисках Стива Маккуина / Finding Steve McQueen [2018 BDRip-AVC] +MVO [HDRezka Studio] bober100 Скачать
2 | 0
Фильмы [HD 720p, 1080p] (Хороший звук DUB, MVO) [ 5.96 GB ] Ограбление президента / В поисках Стива Маккуина / Finding Steve McQueen [2018 BDRip 720p] +MVO [HDRezka Studio] bober100 Скачать
3 | 0
Фильмы 2018 [DVDrip, WEB-DLRip, HDrip] (DUB, MVO) [ 1.46 GB ] Ограбление президента / В поисках Стива Маккуина / Finding Steve McQueen [2018 BDRip] bober100 Скачать
2 | 0
Фильмы [HD 720p, 1080p] (Хороший звук DUB, MVO) [ 11.44 GB ] Ограбление президента / В поисках Стива Маккуина / Finding Steve McQueen [2018 BDRip 1080p] +MVO [HDRezka Studio] bober100 Скачать
3 | 0
Фильмы (Blu-ray, BD-Remux, HDDVD) [ 20.99 GB ] Ограбление президента / В поисках Стива Маккуина / Finding Steve McQueen [2018 BD Remux 1080p] +MVO [HDRezka Studio] bober100 Скачать
1 | 0

28-11-2019 20:33  

Отключить всю рекламу на сайте

    Дорогой пользователь! Огромная просьба, поблагодарите релизера, оцените раздачу и оставьте свои комментарий, если Вы скачали Ограбление президента через торрент бесплатно! Внесите свою лепту в развитие PiratBit!
    Комментировать посты могут только пользователи прошедшие не сложную регистрацию
    Показать сообщения:    

    Ограбление президента через торрент
    Скачать бесплатно Ограбление президента
    Ограбление президента скачать торрент
    Ограбление президента смотреть онлайн
    Cкачать фильм Ограбление президента бесплатно
    Ограбление президента скачать торрент в хорошем качестве
    Ограбление президента смотреть онлайн бесплатно в хорошем качестве


    Вы не можете начинать темы
    Вы не можете отвечать на сообщения
    Вы не можете редактировать свои сообщения
    Вы не можете удалять свои сообщения
    Вы не можете голосовать в опросах
    Вы не можете прикреплять файлы к сообщениям
    Вы можете скачивать файлы