Ссылка на приватное зеркало нашего сайта всего за 1$. Внимание количество ограничено!!!

2 сезон

iTunes

1 сезон

1

iTunes

iTunes

iTunes

1 сезон

RePack

30

ИГРА 18+

pack

ВАЖНО

!!Акция!!

Alien_RageХит недели

RePack

MK11
pack

Забери бонус

RePack

jed

!!Акция!!

Alien_Rage

RePack

fifa19

RePack

Assassins Creed: Odyssey

RePack

NEED FOR SPEED™ PAYBACK

4 сезон

9 сезон

Бесстыжие 9 сезон

Все сериалы

все сериалы на PB.wtf

RePack

FAR CRY 5
  

Ограбление президента / В поисках Стива Маккуина / Finding Steve McQueen (Марк Стивен Джонсон) [2019 г., Мелодрама, криминал, HDRip, КПК] Dub [iTunes] pb.wtf

Ограбление президента через торрент pb.wtf

Размер: 348 MB | Добавлен: 14 д. назад | Торрент скачан:3 раза
Скачать  

08-10-2020 10:49 Ограбление президента Скачать торрент  

Ограбление президента / В поисках Стива Маккуина / Finding Steve McQueen

Год выпуска: 2019
Страна: США
Жанр: Мелодрама, криминал
Продолжительность: 01:31:35
Перевод: Дубляж | iTunes
Субтитры: Нет

Режиссер: Марк Стивен Джонсон

rating

В ролях: Трэвис Фиммел, Рэйчел Тейлор, Уильям Фихтнер, Форест Уитакер, Лили Рэйб, Джейк Вири, Риз Койро, Джон Финн, Луис Ломбарди, Молли МакКуин

Описание: Голливудская внешность, неординарный ум, страсть к скорости и красивым женщинам... В этом весь он. Однако, он – не тот, за кого себя выдает. В 1972 году на поиски человека, называющего себя Стивом Маккуином, в Калифорнии были брошены силы десятков агентов ФБР. Вор не только присвоил себе имя знаменитого актера, но вдобавок дерзнул ограбить самого президента США, примкнув к банде таких же безрассудных смельчаков. На кону стояли 30 миллионов долларов из незаконных фондов. Разве это вообще преступление?

Качество: HDRip
Формат: MP4
Видео кодек: H.264
Аудио кодек: AAC LC
Видео: H.264, 640х344, 400 kb/s, 23.976 FPS
Аудио#1: AAC LC, 2 ch, 128 kb/s
General
Complete name : D:\Изготовление рипа\Finding.Steve.McQueen.2019.HDRip.KPK.by.sergey82.RG GeneralFilm.mp4
Format : MPEG-4
Format profile : Base Media
Codec ID : isom (isom/avc1/iso6)
File size : 348 MiB
Duration : 1 h 31 min
Overall bit rate mode : Variable
Overall bit rate : 532 kb/s
Encoded date : UTC 2020-10-08 10:05:40
Tagged date : UTC 2020-10-08 10:05:40

Video
ID : 1
Format : AVC
Format/Info : Advanced Video Codec
Format profile : High@L4.1
Format settings : CABAC / 4 Ref Frames
Format settings, CABAC : Yes
Format settings, Reference : 4 frames
Codec ID : avc1
Codec ID/Info : Advanced Video Coding
Duration : 1 h 31 min
Bit rate : 400 kb/s
Maximum bit rate : 2 262 kb/s
Width : 640 pixels
Height : 344 pixels
Display aspect ratio : 1.85:1
Frame rate mode : Constant
Frame rate : 23.976 (24000/1001) FPS
Color space : YUV
Chroma subsampling : 4:2:0
Bit depth : 8 bits
Scan type : Progressive
Bits/(Pixel*Frame) : 0.076
Stream size : 262 MiB (75%)
Title : 264@GPAC0.5.2-DEV-rev248-g39d5978-master
Writing library : x264 core 146 r2538 121396c
Encoding settings : cabac=1 / ref=3 / deblock=1:0:0 / analyse=0x3:0x113 / me=hex / subme=7 / psy=1 / psy_rd=1.00:0.00 / mixed_ref=1 / me_range=16 / chroma_me=1 / trellis=1 / 8x8dct=1 / cqm=0 / deadzone=21,11 / fast_pskip=1 / chroma_qp_offset=-2 / threads=6 / lookahead_threads=1 / sliced_threads=0 / nr=0 / decimate=1 / interlaced=0 / bluray_compat=0 / constrained_intra=0 / bframes=3 / b_pyramid=2 / b_adapt=1 / b_bias=0 / direct=1 / weightb=1 / open_gop=0 / weightp=2 / keyint=250 / keyint_min=23 / scenecut=40 / intra_refresh=0 / rc_lookahead=40 / rc=2pass / mbtree=1 / bitrate=400 / ratetol=1.0 / qcomp=0.60 / qpmin=0 / qpmax=69 / qpstep=4 / cplxblur=20.0 / qblur=0.5 / ip_ratio=1.40 / aq=1:1.00
Encoded date : UTC 2020-10-08 10:05:40
Tagged date : UTC 2020-10-08 10:05:45
Codec configuration box : avcC

Audio
ID : 2
Format : AAC LC
Format/Info : Advanced Audio Codec Low Complexity
Codec ID : mp4a-40-2
Duration : 1 h 31 min
Bit rate mode : Variable
Bit rate : 128 kb/s
Maximum bit rate : 137 kb/s
Channel(s) : 2 channels
Channel layout : L R
Sampling rate : 48.0 kHz
Frame rate : 46.875 FPS (1024 SPF)
Compression mode : Lossy
Stream size : 83.8 MiB (24%)
Encoded date : UTC 2020-10-08 09:49:10
Tagged date : UTC 2020-10-08 10:05:45

pb.wtf



Скачать Ограбление президента через торрент https://i114.fastpic.ru/big/2020/1007/cc/9c29c6c52ccf2368ae23a06a293daecc.jpg Скачать фильм Ограбление президента через торрент бесплантно в хорошем качестве Описание: Голливудская внешность, неординарный ум, страсть к скорости и красивым женщинам... В этом весь он. Однако, он – не тот, за кого ... 10 10 1
Торрент: Зарегистрирован [2020-10-08 10:49] · скачан: 3 раз
Статус: √ проверено
Размер: 348 MB
Как cкачать? Как скачать Ограбление президента через торрент | qTorrent

% Раздел Тема Автор DL S | L
Фильмы 2018 [DVDrip, WEB-DLRip, HDrip] (DUB, MVO) [ 1.41 GB ] Ограбление президента / В поисках Стива Маккуина / Finding Steve McQueen [2018 BDRip-AVC] bober100 Скачать
11 | 0
Фильмы 2018 [DVDrip, WEB-DLRip, HDrip] (DUB, MVO) [ 2.69 GB ] Ограбление президента / В поисках Стива Маккуина / Finding Steve McQueen [2018 BDRip-AVC] +MVO [HDRezka Studio] bober100 Скачать
5 | 0
Фильмы [HD 720p, 1080p] (Хороший звук DUB, MVO) [ 5.96 GB ] Ограбление президента / В поисках Стива Маккуина / Finding Steve McQueen [2018 BDRip 720p] +MVO [HDRezka Studio] bober100 Скачать
6 | 0
Фильмы 2018 [DVDrip, WEB-DLRip, HDrip] (DUB, MVO) [ 1.46 GB ] Ограбление президента / В поисках Стива Маккуина / Finding Steve McQueen [2018 BDRip] bober100 Скачать
10 | 0
Фильмы [HD 720p, 1080p] (Хороший звук DUB, MVO) [ 11.44 GB ] Ограбление президента / В поисках Стива Маккуина / Finding Steve McQueen [2018 BDRip 1080p] +MVO [HDRezka Studio] bober100 Скачать
7 | 0
Фильмы (Blu-ray, BD-Remux, HDDVD) [ 20.99 GB ] Ограбление президента / В поисках Стива Маккуина / Finding Steve McQueen [2018 BD Remux 1080p] +MVO [HDRezka Studio] bober100 Скачать
1 | 0

28-11-2019 20:33  

Отключить всю рекламу на сайте

    Дорогой пользователь! Огромная просьба, поблагодарите релизера, оцените раздачу и оставьте свои комментарий, если Вы скачали Ограбление президента через торрент бесплатно! Внесите свою лепту в развитие PiratBit!
    Комментировать посты могут только пользователи прошедшие не сложную регистрацию
    Показать сообщения:    

    Ограбление президента через торрент
    Скачать бесплатно Ограбление президента
    Ограбление президента скачать торрент
    Ограбление президента смотреть онлайн
    Cкачать фильм Ограбление президента бесплатно
    Ограбление президента скачать торрент в хорошем качестве
    Ограбление президента смотреть онлайн бесплатно в хорошем качестве


    Вы не можете начинать темы
    Вы не можете отвечать на сообщения
    Вы не можете редактировать свои сообщения
    Вы не можете удалять свои сообщения
    Вы не можете голосовать в опросах
    Вы не можете прикреплять файлы к сообщениям
    Вы можете скачивать файлы