2 сезон

iTunes

MVO

1

2 сезон

iTunes

iTunes

1 сезон

RePack

30

Ultimate

ВАЖНО

ИГРА 18+

pack

RePack

MK11
pack

Легкие деньги

RePack

jed

RePack

fifa19

RePack

RDR2

RePack

NEED FOR SPEED™ PAYBACK

4 сезон

9 сезон

Бесстыжие 9 сезон

Все сериалы

все сериалы на PB.wtf

RePack

FAR CRY 5

Anonymous, добрый день, мы не успеваем собрать деньги на оплату серверов за декабрь и январь, помогите нам пожалуйста в это трудное время. В качестве благодарности мы отключим Вам всю рекламу на сайте (укажите свой ник в строку Ваше имя)!

×
  
Magnet ссылка

Мумия: Трилогия / The Mummy: Trilogy (Стивен Соммерс / Stephen Sommers, Роб Коэн / Rob Cohen) [1999, 2001, 2008, ужасы, боевик, UHD BDRemux 2160] [Dub + MVO + DVO + AVO] pb.wtf

Мумия: Трилогия через торрент pb.wtf

Размер: 205.8 GB | Добавлен: 3 мес. 13 д. назад | Торрент скачан:21 раз
Скачать  

09-10-2020 08:20 Мумия: Трилогия Скачать торрент  

Мумия: Трилогия / The Mummy: Trilogy (1999/2001/2008)

Мумия / The Mummy«Смерть – это только начало»
Год выпуска: 1999
Страна: США
Студия: Universal Pictures
Жанр: ужасы, боевик, триллер, фэнтези, комедия, приключения
Продолжительность: 2:04:49
Перевод 1: Профессиональный (многоголосый закадровый) Universal Pictures
Перевод 2: Профессиональный (многоголосый закадровый) СТС Киномания
Перевод 3: Профессиональный (многоголосый закадровый) Студия Петербургский дубляж
Перевод 4: Профессиональный (многоголосый закадровый) FDV
Перевод 5: Профессиональный (двухголосый закадровый) Премьер-Видео-Фильм
Перевод 6: Авторский (одноголосый закадровый) А.Гаврилов
Перевод 7: Авторский (одноголосый закадровый) Латышев
Перевод 8: Профессиональный (многоголосый закадровый) Blu-Ray CEE
Перевод 9: Профессиональный (дублированный) Украинский дубляж
Субтитры: русские, английские
Оригинальная аудиодорожка: английский
Режиссер: Стивен Соммерс / Stephen Sommers

В ролях: Брендан Фрэйзер, Рэйчел Уайз, Джон Ханна, Арнолд Вослу, Кевин Джей О'Коннор, Джонатан Хайд, Одед Фехр, Эрик Авари, Кори Джонсон, Стивен Данэм, Так Уоткинс, Омид Джалили, Аарон Ипэйл, Бернард Фокс, Патрисия Веласкес
Описание: На бескрайних просторах египетской пустыни компания сорвиголов разных национальностей рыщет в поисках несметных сокровищ фараона, над которыми тяготеет жуткое древнее проклятие. Рядом с кладом покоится мумия коварного жреца, жестоко казненного за ужасное убийство могущественного правителя Египта. Золотоискатели потревожили многовековой покой гробницы, и мумия встает из могилы, чтобы погрузить мир в царство кошмара...

Тип релиза: UHD BDRemux 2160p
Контейнер: MKV

Видео: MPEG-H HEVC Video / 55,0 Mbps / 3840x2160 / 23.976 fps / 16:9 / Main 10 @ Level 5.1 @ High / 4:2:0 / 10 bits / HDR10 / BT.2020 /
Аудио 1: Russian: AC3 / 5.1 / 48 kHz / 448 kbps / 16 bits [Многоголосый закадровый "Universal Pictures"]
Аудио 2: Russian: AC3 / 5.1 / 48 kHz / 448 kbps / 16 bits [Многоголосый закадровый "СТС Киномания"]
Аудио 3: Russian: AC3 / 5.1 / 48 kHz / 448 kbps / 16 bits [Многоголосый закадровый "Студия Петербургский дубляж"]
Аудио 4: Russian: DTS / 5.1 / 48 kHz / 755 kbps / 24 bits [Многоголосый закадровый "FDV"]
Аудио 5: Russian: DTS-HD MA / 5.1 / 48 kHz / 4625 kbps / 24 bits (DTS Core: 5.1 / 48 kHz / 1509 kbps / 24-bit) [Двухголосый закадровый "Премьер-Видео-Фильм"]
Аудио 6: Russian: DTS-HD MA / 5.1 / 48 kHz / 4625 kbps / 24 bits (DTS Core: 5.1 / 48 kHz / 1509 kbps / 24-bit) [Одноголосый закадровый "А.Гаврилов"]
Аудио 6: Russian: DTS-HD MA / 5.1 / 48 kHz / 4445 kbps / 24 bits (DTS Core: 5.1 / 48 kHz / 1509 kbps / 24-bit) [Одноголосый закадровый "Латышев"]
Аудио 7: Russian: AC3 / 2.0 / 48 kHz / 448 kbps / 16 bits [Многоголосый закадровый "Blu-Ray CEE"]
Аудио 8: Ukrainian: AC3 / 2.0 / 48 kHz / 192 kbps / 16 bits [Украинский Дубляж]
Аудио 9: English: DTS-HD MA / 7.1 / 48 kHz / 7482 kbps / 24 bits (DTS Core: 5.1 / 48 kHz / 1509 kbps / 24-bit) [Оригинал]
Формат субтитров: softsub (SRT)
Будет
Общее
Уникальный идентификатор : 214671925755847225850860214129475410966 (0xA1804F1AD633C96CF3F6EB730DCF5C16)
Полное имя : D:\\UHD\\Мумия Трилогия\\Мумия [1999] [4K UHD BDRemux 2160p].mkv
Формат : Matroska
Версия формата : Version 4
Размер файла : 68,8 Гбайт
Продолжительность : 2 ч. 4 м.
Режим общего битрейта : Переменный
Общий поток : 78,8 Мбит/сек
Дата кодирования : UTC 2020-10-07 18:19:26
Программа кодирования : mkvmerge v51.0.0 ('I Wish') 64-bit
Библиотека кодирования : libebml v1.4.0 + libmatroska v1.6.2
Обложка : Yes
Attachments : cover.jpg

Видео
Идентификатор : 1
Формат : HEVC
Формат/Информация : High Efficiency Video Coding
Профиль формата : Main 10@L5.1@High
HDR_Format/String : SMPTE ST 2086, HDR10 compatible
Идентификатор кодека : V_MPEGH/ISO/HEVC
Продолжительность : 2 ч. 4 м.
Битрейт : 55,0 Мбит/сек
Ширина : 3840 пикселей
Высота : 2160 пикселей
Соотношение сторон : 16:9
Режим частоты кадров : Постоянный
Частота кадров : 23,976 (24000/1001) кадра/сек
Цветовое пространство : YUV
Субдискретизация насыщенности : 4:2:0 (Type 2)
Битовая глубина : 10 бит
Бит/(Пиксели*Кадры) : 0.276
Размер потока : 47,9 Гбайт (70%)
Заголовок : Мумия [1999] [4K UHD BDRemux 2160p]
Язык : English
Default : Да
Forced : Нет
Цветовой диапазон : Limited
Основные цвета : BT.2020
Характеристики трансфера : PQ
Коэффициенты матрицы : BT.2020 non-constant
MasteringDisplay_ColorPrimaries : Display P3
MasteringDisplay_Luminance : min: 0.0000 cd/m2, max: 1000 cd/m2
MaxCLL : 1033 cd/m2
MaxFALL : 345 cd/m2

Аудио #1
Идентификатор : 2
Формат : AC-3
Формат/Информация : Audio Coding 3
Коммерческое название : Dolby Digital
Идентификатор кодека : A_AC3
Продолжительность : 2 ч. 4 м.
Вид битрейта : Постоянный
Битрейт : 448 Кбит/сек
Каналы : 6 каналов
ChannelLayout : L R C LFE Ls Rs
Частота : 48,0 КГц
Частота кадров : 31,250 кадров/сек (1536 SPF)
Метод сжатия : С потерями
Задержка видео : 9 мс.
Размер потока : 400 Мбайт (1%)
Заголовок : AC3 / 5.1 / 48 kHz / 448 kbps / 16 bits [Многоголосый закадровый "Universal Pictures"]
Язык : Russian
ServiceKind/String : Complete Main
Default : Да
Forced : Нет

Аудио #2
Идентификатор : 3
Формат : AC-3
Формат/Информация : Audio Coding 3
Коммерческое название : Dolby Digital
Идентификатор кодека : A_AC3
Продолжительность : 2 ч. 4 м.
Вид битрейта : Постоянный
Битрейт : 448 Кбит/сек
Каналы : 6 каналов
ChannelLayout : L R C LFE Ls Rs
Частота : 48,0 КГц
Частота кадров : 31,250 кадров/сек (1536 SPF)
Метод сжатия : С потерями
Задержка видео : 10 мс.
Размер потока : 400 Мбайт (1%)
Заголовок : AC3 / 5.1 / 48 kHz / 448 kbps / 16 bits [Многоголосый закадровый "СТС Киномания"]
Язык : Russian
ServiceKind/String : Complete Main
Default : Нет
Forced : Нет

Аудио #3
Идентификатор : 4
Формат : AC-3
Формат/Информация : Audio Coding 3
Коммерческое название : Dolby Digital
Идентификатор кодека : A_AC3
Продолжительность : 2 ч. 4 м.
Вид битрейта : Постоянный
Битрейт : 448 Кбит/сек
Каналы : 6 каналов
ChannelLayout : L R C LFE Ls Rs
Частота : 48,0 КГц
Частота кадров : 31,250 кадров/сек (1536 SPF)
Метод сжатия : С потерями
Задержка видео : 88 мс.
Размер потока : 400 Мбайт (1%)
Заголовок : AC3 / 5.1 / 48 kHz / 448 kbps / 16 bits [Многоголосый закадровый "Студия Петербургский дубляж"]
Язык : Russian
ServiceKind/String : Complete Main
Default : Нет
Forced : Нет

Аудио #4
Идентификатор : 5
Формат : DTS
Формат/Информация : Digital Theater Systems
Идентификатор кодека : A_DTS
Продолжительность : 2 ч. 4 м.
Вид битрейта : Постоянный
Битрейт : 755 Кбит/сек
Каналы : 6 каналов
ChannelLayout : C L R Ls Rs LFE
Частота : 48,0 КГц
Частота кадров : 93,750 кадра/сек (512 SPF)
Битовая глубина : 24 бит
Метод сжатия : С потерями
Задержка видео : 1 мс.
Размер потока : 674 Мбайт (1%)
Заголовок : DTS / 5.1 / 48 kHz / 755 kbps / 24 bits [Многоголосый закадровый "FDV"]
Язык : Russian
Default : Нет
Forced : Нет

Аудио #5
Идентификатор : 6
Формат : DTS XLL
Формат/Информация : Digital Theater Systems
Коммерческое название : DTS-HD Master Audio
Идентификатор кодека : A_DTS
Продолжительность : 2 ч. 4 м.
Вид битрейта : Переменный
Битрейт : 4625 Кбит/сек
Каналы : 6 каналов
ChannelLayout : C L R Ls Rs LFE
Частота : 48,0 КГц
Частота кадров : 93,750 кадра/сек (512 SPF)
Битовая глубина : 24 бит
Метод сжатия : Без потерь
Задержка видео : 3 мс.
Размер потока : 4,03 Гбайт (6%)
Заголовок : DTS-HD MA / 5.1 / 48 kHz / 4625 kbps / 24 bits (DTS Core: 5.1 / 48 kHz / 1509 kbps / 24-bit) [Двухголосый закадровый "Премьер-Видео-Фильм"]
Язык : Russian
Default : Нет
Forced : Нет

Аудио #6
Идентификатор : 7
Формат : DTS XLL
Формат/Информация : Digital Theater Systems
Коммерческое название : DTS-HD Master Audio
Идентификатор кодека : A_DTS
Продолжительность : 2 ч. 4 м.
Вид битрейта : Переменный
Битрейт : 4625 Кбит/сек
Каналы : 6 каналов
ChannelLayout : C L R Ls Rs LFE
Частота : 48,0 КГц
Частота кадров : 93,750 кадра/сек (512 SPF)
Битовая глубина : 24 бит
Метод сжатия : Без потерь
Задержка видео : 43 мс.
Размер потока : 4,03 Гбайт (6%)
Заголовок : DTS-HD MA / 5.1 / 48 kHz / 4625 kbps / 24 bits (DTS Core: 5.1 / 48 kHz / 1509 kbps / 24-bit) [Одноголосый закадровый "А.Гаврилов"]
Язык : Russian
Default : Нет
Forced : Нет

Аудио #7
Идентификатор : 8
Формат : DTS XLL
Формат/Информация : Digital Theater Systems
Коммерческое название : DTS-HD Master Audio
Идентификатор кодека : A_DTS
Продолжительность : 2 ч. 4 м.
Вид битрейта : Переменный
Битрейт : 4445 Кбит/сек
Каналы : 6 каналов
ChannelLayout : C L R Ls Rs LFE
Частота : 48,0 КГц
Частота кадров : 93,750 кадра/сек (512 SPF)
Битовая глубина : 24 бит
Метод сжатия : Без потерь
Задержка видео : 2 мс.
Размер потока : 3,87 Гбайт (6%)
Заголовок : DTS-HD MA / 5.1 / 48 kHz / 4445 kbps / 24 bits (DTS Core: 5.1 / 48 kHz / 1509 kbps / 24-bit) [Одноголосый закадровый "Латышев"]
Язык : Russian
Default : Нет
Forced : Нет

Аудио #8
Идентификатор : 9
Формат : AC-3
Формат/Информация : Audio Coding 3
Коммерческое название : Dolby Digital
Идентификатор кодека : A_AC3
Продолжительность : 2 ч. 4 м.
Вид битрейта : Постоянный
Битрейт : 448 Кбит/сек
Каналы : 2 канала
ChannelLayout : L R
Частота : 48,0 КГц
Частота кадров : 31,250 кадров/сек (1536 SPF)
Метод сжатия : С потерями
Задержка видео : 22 мс.
Размер потока : 400 Мбайт (1%)
Заголовок : AC3 / 2.0 / 48 kHz / 448 kbps / 16 bits [Многоголосый закадровый "Blu-Ray CEE"]
Язык : Russian
ServiceKind/String : Complete Main
Default : Нет
Forced : Нет

Аудио #9
Идентификатор : 10
Формат : AC-3
Формат/Информация : Audio Coding 3
Коммерческое название : Dolby Digital
Идентификатор кодека : A_AC3
Продолжительность : 2 ч. 4 м.
Вид битрейта : Постоянный
Битрейт : 192 Кбит/сек
Каналы : 2 канала
ChannelLayout : L R
Частота : 48,0 КГц
Частота кадров : 31,250 кадров/сек (1536 SPF)
Метод сжатия : С потерями
Задержка видео : 220 мс.
Размер потока : 172 Мбайт (0%)
Заголовок : AC3 / 2.0 / 48 kHz / 192 kbps / 16 bits [Украинский Дубляж]
Язык : Ukrainian
ServiceKind/String : Complete Main
Default : Нет
Forced : Нет

Аудио #10
Идентификатор : 11
Формат : DTS XLL X
Формат/Информация : Digital Theater Systems
Коммерческое название : DTS-HD Master Audio
Идентификатор кодека : A_DTS
Продолжительность : 2 ч. 4 м.
Вид битрейта : Переменный
Битрейт : 7482 Кбит/сек
Каналы : 8 каналов
Channel(s)_Original : Object Based
ChannelLayout_Original : Object Based
Частота : 48,0 КГц
Частота кадров : 93,750 кадра/сек (512 SPF)
Битовая глубина : 24 бит
Размер потока : 6,52 Гбайт (9%)
Заголовок : DTS-HD MA / 7.1 / 48 kHz / 7482 kbps / 24 bits (DTS Core: 5.1 / 48 kHz / 1509 kbps / 24-bit) [Оригинал]
Язык : English
Default : Нет
Forced : Нет

Текст #1
Идентификатор : 12
Формат : UTF-8
Идентификатор кодека : S_TEXT/UTF8
Идентификатор кодека/Информация : UTF-8 Plain Text
Продолжительность : 1 ч. 55 м.
Битрейт : 72 бит/сек
ElementCount : 1139
Размер потока : 61,3 Кбайт (0%)
Заголовок : Русские
Язык : Russian
Default : Нет
Forced : Нет

Текст #2
Идентификатор : 13
Формат : UTF-8
Идентификатор кодека : S_TEXT/UTF8
Идентификатор кодека/Информация : UTF-8 Plain Text
Продолжительность : 1 ч. 55 м.
Битрейт : 41 бит/сек
ElementCount : 1099
Размер потока : 35,1 Кбайт (0%)
Заголовок : Английские
Язык : English
Default : Нет
Forced : Нет

Меню
00:00:00.000 : en:The Living Death
00:07:10.430 : en:Sand and Blood
00:12:19.155 : en:The Key to Hamunaptra
00:23:19.732 : en:The Expedition
00:29:03.116 : en:The Magi Strike
00:36:46.121 : en:The City of the Dead
00:43:38.908 : en:Chambers of Death
00:49:06.610 : en:Leave or Die!
00:53:33.877 : en:The Black Book
00:57:29.655 : en:The Bringer of Death
01:11:13.352 : en:A Curse in Cairo
01:18:48.307 : en:The Regeneration
01:27:29.619 : en:Evelyn's Choice
01:30:03.898 : en:Back to Hamunaptra
01:36:32.870 : en:Against the Dead
01:43:58.023 : en:The Gold Book
01:49:44.661 : en:Death of a Mortal
01:56:51.671 : en:End Titles
скриншот  скриншот  скриншот  
Мумия возвращается / The Mummy Returns
«Приключение возрождается»
Год выпуска: 2001
Страна: США
Студия: Universal Pictures
Жанр: ужасы, боевик, триллер, фэнтези, комедия, приключения
Продолжительность: 2:09:33
Перевод 1: Профессиональный (дублированный)
Перевод 2: Профессиональный (многоголосый закадровый) Карусель
Перевод 3: Профессиональный (многоголосый закадровый) Blu-Ray CEE
Перевод 4: Профессиональный (многоголосый закадровый) Киномания
Перевод 5: Профессиональный (многоголосый закадровый) OPT
Перевод 6: Авторский (одноголосый закадровый) А.Гаврилов
Перевод 7: Авторский (одноголосый закадровый) Ю.Живов
Перевод 8: Авторский (одноголосый закадровый) С.Визгунов
Перевод 9: Профессиональный (дублированный) Украинский дубляж
Субтитры: русские, английские
Оригинальная аудиодорожка: английский
Режиссер: Стивен Соммерс / Stephen Sommers

В ролях: Брендан Фрэйзер, Рэйчел Вайс, Джон Ханна, Арнольд Вослу, Одед Фехр, Фредди Боут, Патрисия Веласкес, Алун Армстронг, Шон Паркc, Адевале Акиннуойе-Агбайе, Дуэйн Джонсон
Описание: Прошло десять лет. Рик и Эвелин наслаждаются счастливым браком, воспитывая своего девятилетнего сына Алекса. Тем временем ученые обнаруживают мумию Имхотепа и перевозят в Лондонской Музей. Остатки древнего зла все еще теплятся внутри саркофага, и Имхотеп вновь вырывается на волю. Однако тайные ритуалы египетских жрецов вызывают к жизни силу, куда более могущественную. В столкновении между ними на чаши весов ложится жизнь всего мира. Рик и Эвелин отчаянно пытаются противостоять злу и спасти своего сына, пока не стало слишком поздно...

Тип релиза: UHD BDRemux 2160p
Контейнер: MKV

Видео: MPEG-H HEVC Video / 52,0 Mbps / 3840x2160 / 23.976 fps / 16:9 / Main 10 @ Level 5.1 @ High / 4:2:0 / 10 bits / HDR10 / BT.2020 /
Аудио 1: Russian: DTS-HD MA / 5.1 / 48 kHz / 4509 kbps / 24 bits (DTS Core: 5.1 / 48 kHz / 1509 kbps / 24-bit) [Дубляж]
Аудио 2: Russian: DTS-HD MA / 5.1 / 48 kHz / 4470 kbps / 24 bits (DTS Core: 5.1 / 48 kHz / 1509 kbps / 24-bit) [Многоголосый закадровый "Карусель"]
Аудио 3: Russian: AC3 / 5.1 / 48 kHz / 448 kbps / 16 bits [Многоголосый закадровый "Blu-Ray CEE"]
Аудио 4: Russian: AC3 / 5.1 / 48 kHz / 448 kbps / 16 bits [Многоголосый закадровый "Киномания"]
Аудио 5: Russian: DTS / 5.1 / 48 kHz / 755 kbps / 24 bits [Многоголосый закадровый "OPT"]
Аудио 6: Russian: DTS-HD MA / 5.1 / 48 kHz / 4468 kbps / 24 bits (DTS Core: 5.1 / 48 kHz / 1509 kbps / 24-bit) [Одноголосый закадровый "А.Гаврилов"]
Аудио 6: Russian: DTS-HD MA / 5.1 / 48 kHz / 4473 kbps / 24 bits (DTS Core: 5.1 / 48 kHz / 1509 kbps / 24-bit) [Одноголосый закадровый "Ю.Живов"]
Аудио 7: Russian: DTS-HD MA / 5.1 / 48 kHz / 4464 kbps / 24 bits (DTS Core: 5.1 / 48 kHz / 1509 kbps / 24-bit) [Одноголосый закадровый "С.Визгунов"]
Аудио 8: Ukrainian: AC3 / 2.0 / 48 kHz / 192 kbps / 16 bits [Украинский Дубляж]
Аудио 9: English: DTS-HD MA / 7.1 / 48 kHz / 8365 kbps / 24 bits (DTS Core: 5.1 / 48 kHz / 1509 kbps / 24-bit) [Оригинал]
Формат субтитров: softsub (SRT)
Будет
Общее
Уникальный идентификатор : 81169109559292072930244399513369440546 (0x3D109A13E30707F670FA5ECE33F1F122)
Полное имя : D:\\UHD\\Мумия Трилогия\\Мумия возвращается [2001] [4K UHD BDRemux 2160p].mkv
Формат : Matroska
Версия формата : Version 4
Размер файла : 76,5 Гбайт
Продолжительность : 2 ч. 9 м.
Режим общего битрейта : Переменный
Общий поток : 84,5 Мбит/сек
Дата кодирования : UTC 2020-10-08 13:36:09
Программа кодирования : mkvmerge v51.0.0 ('I Wish') 64-bit
Библиотека кодирования : libebml v1.4.0 + libmatroska v1.6.2
Обложка : Yes
Attachments : cover.jpg

Видео
Идентификатор : 1
Формат : HEVC
Формат/Информация : High Efficiency Video Coding
Профиль формата : Main 10@L5.1@High
HDR_Format/String : SMPTE ST 2086, HDR10 compatible
Идентификатор кодека : V_MPEGH/ISO/HEVC
Продолжительность : 2 ч. 9 м.
Битрейт : 52,0 Мбит/сек
Ширина : 3840 пикселей
Высота : 2160 пикселей
Соотношение сторон : 16:9
Режим частоты кадров : Постоянный
Частота кадров : 23,976 (24000/1001) кадра/сек
Цветовое пространство : YUV
Субдискретизация насыщенности : 4:2:0 (Type 2)
Битовая глубина : 10 бит
Бит/(Пиксели*Кадры) : 0.261
Размер потока : 47,0 Гбайт (61%)
Заголовок : Мумия возвращается [2001] [4K UHD BDRemux 2160p]
Библиотека кодирования : ATEME Titan File 3.7.9 (4.7.9.0)
Язык : English
Default : Да
Forced : Нет
Цветовой диапазон : Limited
Основные цвета : BT.2020
Характеристики трансфера : PQ
Коэффициенты матрицы : BT.2020 non-constant
MasteringDisplay_ColorPrimaries : Display P3
MasteringDisplay_Luminance : min: 0.0050 cd/m2, max: 1000 cd/m2
MaxCLL : 984 cd/m2
MaxFALL : 302 cd/m2

Аудио #1
Идентификатор : 2
Формат : DTS XLL
Формат/Информация : Digital Theater Systems
Коммерческое название : DTS-HD Master Audio
Идентификатор кодека : A_DTS
Продолжительность : 2 ч. 9 м.
Вид битрейта : Переменный
Битрейт : 4509 Кбит/сек
Каналы : 6 каналов
ChannelLayout : C L R Ls Rs LFE
Частота : 48,0 КГц
Частота кадров : 93,750 кадра/сек (512 SPF)
Битовая глубина : 24 бит
Метод сжатия : Без потерь
Задержка видео : 6 мс.
Размер потока : 4,08 Гбайт (5%)
Заголовок : DTS-HD MA / 5.1 / 48 kHz / 4509 kbps / 24 bits (DTS Core: 5.1 / 48 kHz / 1509 kbps / 24-bit) [Дубляж]
Язык : Russian
Default : Да
Forced : Нет

Аудио #2
Идентификатор : 3
Формат : DTS XLL
Формат/Информация : Digital Theater Systems
Коммерческое название : DTS-HD Master Audio
Идентификатор кодека : A_DTS
Продолжительность : 2 ч. 9 м.
Вид битрейта : Переменный
Битрейт : 4470 Кбит/сек
Каналы : 6 каналов
ChannelLayout : C L R Ls Rs LFE
Частота : 48,0 КГц
Частота кадров : 93,750 кадра/сек (512 SPF)
Битовая глубина : 24 бит
Метод сжатия : Без потерь
Задержка видео : 4 мс.
Размер потока : 4,05 Гбайт (5%)
Заголовок : DTS-HD MA / 5.1 / 48 kHz / 4470 kbps / 24 bits (DTS Core: 5.1 / 48 kHz / 1509 kbps / 24-bit) [Многоголосый закадровый "Карусель"]
Язык : Russian
Default : Нет
Forced : Нет

Аудио #3
Идентификатор : 4
Формат : AC-3
Формат/Информация : Audio Coding 3
Коммерческое название : Dolby Digital
Идентификатор кодека : A_AC3
Продолжительность : 2 ч. 9 м.
Вид битрейта : Постоянный
Битрейт : 448 Кбит/сек
Каналы : 6 каналов
ChannelLayout : L R C LFE Ls Rs
Частота : 48,0 КГц
Частота кадров : 31,250 кадров/сек (1536 SPF)
Метод сжатия : С потерями
Размер потока : 415 Мбайт (1%)
Заголовок : AC3 / 5.1 / 48 kHz / 448 kbps / 16 bits [Многоголосый закадровый "Blu-Ray CEE"]
Язык : Russian
ServiceKind/String : Complete Main
Default : Нет
Forced : Нет

Аудио #4
Идентификатор : 5
Формат : AC-3
Формат/Информация : Audio Coding 3
Коммерческое название : Dolby Digital
Идентификатор кодека : A_AC3
Продолжительность : 2 ч. 9 м.
Вид битрейта : Постоянный
Битрейт : 448 Кбит/сек
Каналы : 6 каналов
ChannelLayout : L R C LFE Ls Rs
Частота : 48,0 КГц
Частота кадров : 31,250 кадров/сек (1536 SPF)
Метод сжатия : С потерями
Размер потока : 415 Мбайт (1%)
Заголовок : AC3 / 5.1 / 48 kHz / 448 kbps / 16 bits [Многоголосый закадровый "Киномания"]
Язык : Russian
ServiceKind/String : Complete Main
Default : Нет
Forced : Нет

Аудио #5
Идентификатор : 6
Формат : DTS
Формат/Информация : Digital Theater Systems
Идентификатор кодека : A_DTS
Продолжительность : 2 ч. 9 м.
Вид битрейта : Постоянный
Битрейт : 755 Кбит/сек
Каналы : 6 каналов
ChannelLayout : C L R Ls Rs LFE
Частота : 48,0 КГц
Частота кадров : 93,750 кадра/сек (512 SPF)
Битовая глубина : 24 бит
Метод сжатия : С потерями
Размер потока : 699 Мбайт (1%)
Заголовок : DTS / 5.1 / 48 kHz / 755 kbps / 24 bits [Многоголосый закадровый "OPT"]
Язык : Russian
Default : Нет
Forced : Нет

Аудио #6
Идентификатор : 7
Формат : DTS XLL
Формат/Информация : Digital Theater Systems
Коммерческое название : DTS-HD Master Audio
Идентификатор кодека : A_DTS
Продолжительность : 2 ч. 9 м.
Вид битрейта : Переменный
Битрейт : 4468 Кбит/сек
Каналы : 6 каналов
ChannelLayout : C L R Ls Rs LFE
Частота : 48,0 КГц
Частота кадров : 93,750 кадра/сек (512 SPF)
Битовая глубина : 24 бит
Метод сжатия : Без потерь
Задержка видео : 5 мс.
Размер потока : 4,05 Гбайт (5%)
Заголовок : DTS-HD MA / 5.1 / 48 kHz / 4468 kbps / 24 bits (DTS Core: 5.1 / 48 kHz / 1509 kbps / 24-bit) [Одноголосый закадровый "А.Гаврилов"]
Язык : Russian
Default : Нет
Forced : Нет

Аудио #7
Идентификатор : 8
Формат : DTS XLL
Формат/Информация : Digital Theater Systems
Коммерческое название : DTS-HD Master Audio
Идентификатор кодека : A_DTS
Продолжительность : 2 ч. 9 м.
Вид битрейта : Переменный
Битрейт : 4473 Кбит/сек
Каналы : 6 каналов
ChannelLayout : C L R Ls Rs LFE
Частота : 48,0 КГц
Частота кадров : 93,750 кадра/сек (512 SPF)
Битовая глубина : 24 бит
Метод сжатия : Без потерь
Задержка видео : 4 мс.
Размер потока : 4,05 Гбайт (5%)
Заголовок : DTS-HD MA / 5.1 / 48 kHz / 4473 kbps / 24 bits (DTS Core: 5.1 / 48 kHz / 1509 kbps / 24-bit) [Одноголосый закадровый "Ю.Живов"]
Язык : Russian
Default : Нет
Forced : Нет

Аудио #8
Идентификатор : 9
Формат : DTS XLL
Формат/Информация : Digital Theater Systems
Коммерческое название : DTS-HD Master Audio
Идентификатор кодека : A_DTS
Продолжительность : 2 ч. 9 м.
Вид битрейта : Переменный
Битрейт : 4464 Кбит/сек
Каналы : 6 каналов
ChannelLayout : C L R Ls Rs LFE
Частота : 48,0 КГц
Частота кадров : 93,750 кадра/сек (512 SPF)
Битовая глубина : 24 бит
Метод сжатия : Без потерь
Задержка видео : 4 мс.
Размер потока : 4,04 Гбайт (5%)
Заголовок : DTS-HD MA / 5.1 / 48 kHz / 4464 kbps / 24 bits (DTS Core: 5.1 / 48 kHz / 1509 kbps / 24-bit) [Одноголосый закадровый "С.Визгунов"]
Язык : Russian
Default : Нет
Forced : Нет

Аудио #9
Идентификатор : 10
Формат : AC-3
Формат/Информация : Audio Coding 3
Коммерческое название : Dolby Digital
Идентификатор кодека : A_AC3
Продолжительность : 2 ч. 9 м.
Вид битрейта : Постоянный
Битрейт : 192 Кбит/сек
Каналы : 2 канала
ChannelLayout : L R
Частота : 48,0 КГц
Частота кадров : 31,250 кадров/сек (1536 SPF)
Метод сжатия : С потерями
Задержка видео : 21 мс.
Размер потока : 178 Мбайт (0%)
Заголовок : AC3 / 2.0 / 48 kHz / 192 kbps / 16 bits [Украинский Дубляж]
Язык : Ukrainian
ServiceKind/String : Complete Main
Default : Нет
Forced : Нет

Аудио #10
Идентификатор : 11
Формат : DTS XLL X
Формат/Информация : Digital Theater Systems
Коммерческое название : DTS-HD Master Audio
Идентификатор кодека : A_DTS
Продолжительность : 2 ч. 9 м.
Вид битрейта : Переменный
Битрейт : 8365 Кбит/сек
Каналы : 8 каналов
Channel(s)_Original : Object Based
ChannelLayout_Original : Object Based
Частота : 48,0 КГц
Частота кадров : 93,750 кадра/сек (512 SPF)
Битовая глубина : 24 бит
Размер потока : 7,57 Гбайт (10%)
Заголовок : DTS-HD MA / 7.1 / 48 kHz / 8365 kbps / 24 bits (DTS Core: 5.1 / 48 kHz / 1509 kbps / 24-bit) [Оригинал]
Язык : English
Default : Нет
Forced : Нет

Текст #1
Идентификатор : 12
Формат : UTF-8
Идентификатор кодека : S_TEXT/UTF8
Идентификатор кодека/Информация : UTF-8 Plain Text
Продолжительность : 1 ч. 56 м.
Битрейт : 5 бит/сек
ElementCount : 111
Размер потока : 4,50 Кбайт (0%)
Заголовок : Форсированные
Язык : Russian
Default : Нет
Forced : Нет

Текст #2
Идентификатор : 13
Формат : UTF-8
Идентификатор кодека : S_TEXT/UTF8
Идентификатор кодека/Информация : UTF-8 Plain Text
Продолжительность : 2 ч. 1 м.
Битрейт : 57 бит/сек
ElementCount : 916
Размер потока : 51,3 Кбайт (0%)
Заголовок : Русские
Язык : Russian
Default : Нет
Forced : Нет

Текст #3
Идентификатор : 14
Формат : UTF-8
Идентификатор кодека : S_TEXT/UTF8
Идентификатор кодека/Информация : UTF-8 Plain Text
Продолжительность : 2 ч. 1 м.
Битрейт : 30 бит/сек
ElementCount : 803
Размер потока : 27,2 Кбайт (0%)
Заголовок : Английские
Язык : English
Default : Нет
Forced : Нет

Меню
00:00:00.000 : en:1. Legend Of The Scorpion King
00:04:41.489 : en:2. The Family O'connell
00:10:03.519 : en:3. Visions Of The Past
00:13:33.395 : en:4. The Bracelet Of Anubis
00:17:03.897 : en:5. The Unholy Treasure
00:23:20.774 : en:6. Alex's New Bracelet
00:26:17.158 : en:7. The Siege Of O'Connell Manor
00:35:25.248 : en:8. Resurrection
00:42:01.685 : en:9. The Soldier Mummies
00:46:51.725 : en:10. Kidnapped
00:56:03.151 : en:11. Izzy's Magic Carpet
01:06:37.410 : en:12. Visions Of Nefertiri
01:17:00.657 : en:13. The Wall Of Water
01:27:33.665 : en:14. The Pygmy Mummies
01:35:27.638 : en:15. A Death In The Family
01:42:44.074 : en:16. Face-To-Face
01:47:43.790 : en:17. The Scorpion King
01:51:20.840 : en:18. To Kill A Scorpion
01:53:26.382 : en:19. Return To The Underworld
02:01:49.176 : en:20. End Titles
скриншот  скриншот  скриншот  
Мумия: Гробница Императора Драконов / The Mummy: Tomb of the Dragon Emperor
«Приключение, неподвластное времени»
Год выпуска: 2008
Страна: США, Китай, Германия
Студия: Universal Pictures
Жанр: ужасы, боевик, триллер, фэнтези, комедия, приключения
Продолжительность: 1:51:39
Перевод 1: Профессиональный (дублированный)
Перевод 2: Авторский (одноголосый закадровый) А.Гаврилов
Перевод 3: Авторский (одноголосый закадровый) В.Королев
Перевод 4: Авторский (одноголосый закадровый) М.Яроцкий
Перевод 5: Профессиональный (многоголосый закадровый) Украинский

Субтитры: русские, английские
Оригинальная аудиодорожка: английский
Режиссер: Роб Коэн / Rob Cohen

В ролях: Джет Ли, Брендан Фрейзер, Мария Белло, Джон Ханна, Мишель Йео, Люк Форд, Изабелла Люн, Энтони Вонг Чау-Санг, Расселл Вонг, Лайам Каннингэм
Описание: Заколдованный волшебницей, безжалостный китайский император-дракон должен провести вечность в забвении. Его 10 000 воинов превратились в терракотовых воинов. Однако когда искатель приключений Алекс О`Коннелл случайно пробуждает властителя от вечной спячки, он вынужден искать помощи у единственных людей, которые знают, как справиться с воскресшими мертвецами: у своих родителей. Монарх возвращается к жизни, и наши герои понимают, что его сила за эту тысячу лет только увеличилась. Мумия готова поднять всю Азию в борьбе за мировое господство... если О'Коннеллы ее не остановят

Тип релиза: UHD BDRemux 2160p
Контейнер: MKV

Видео: MPEG-H HEVC Video / 63,0 Mbps / 3840x2160 / 23.976 fps / 16:9 / Main 10 @ Level 5.1 @ High / 4:2:0 / 10 bits / HDR10 / BT.2020 /
Аудио 1: Russian: AC3 / 5.1 / 48 kHz / 448 kbps / 16 bits [Дубляж]
Аудио 2: Russian: DTS-HD MA / 5.1 / 48 kHz / 4375 kbps / 24 bits (DTS Core: 5.1 / 48 kHz / 1509 kbps / 24-bit) [Одноголосый закадровый "А.Гаврилов"]
Аудио 3: Russian: DTS-HD MA / 5.1 / 48 kHz / 4373 kbps / 24 bits (DTS Core: 5.1 / 48 kHz / 1509 kbps / 24-bit) [Одноголосый закадровый "В.Королев"]
Аудио 4: Russian: AC3 / 5.1 / 48 kHz / 448 kbps / 16 bits [Одноголосый закадровый "М.Яроцкий"]
Аудио 5: Ukrainian: AC3 / 2.0 / 48 kHz / 192 kbps / 16 bits [Многоголосый закадровый]
Аудио 6: English: DTS-HD MA / 7.1 / 48 kHz / 4730 kbps / 24 bits (DTS Core: 5.1 / 48 kHz / 1509 kbps / 24-bit) [Оригинал]
Формат субтитров: softsub (SRT)
Будет
Общее
Уникальный идентификатор : 75829455022691375945357383343983956775 (0x390C38C881801D0A602217574A521327)
Полное имя : D:\\UHD\\Мумия Трилогия\\Мумия Гробница императора драконов [2008] [4K UHD BDRemux 2160p].mkv
Формат : Matroska
Версия формата : Version 4
Размер файла : 60,5 Гбайт
Продолжительность : 1 ч. 51 м.
Режим общего битрейта : Переменный
Общий поток : 77,6 Мбит/сек
Дата кодирования : UTC 2020-10-08 19:38:21
Программа кодирования : mkvmerge v51.0.0 ('I Wish') 64-bit
Библиотека кодирования : libebml v1.4.0 + libmatroska v1.6.2
Обложка : Yes
Attachments : cover.jpg

Видео
Идентификатор : 1
Формат : HEVC
Формат/Информация : High Efficiency Video Coding
Профиль формата : Main 10@L5.1@High
HDR_Format/String : SMPTE ST 2086, HDR10 compatible
Идентификатор кодека : V_MPEGH/ISO/HEVC
Продолжительность : 1 ч. 51 м.
Битрейт : 63,0 Мбит/сек
Ширина : 3840 пикселей
Высота : 2160 пикселей
Соотношение сторон : 16:9
Режим частоты кадров : Постоянный
Частота кадров : 23,976 (24000/1001) кадра/сек
Цветовое пространство : YUV
Субдискретизация насыщенности : 4:2:0 (Type 2)
Битовая глубина : 10 бит
Бит/(Пиксели*Кадры) : 0.317
Размер потока : 49,1 Гбайт (81%)
Заголовок : Мумия: Гробница императора драконов [2008] [4K UHD BDRemux 2160p]
Библиотека кодирования : ATEME Titan File 3.7.8 (4.7.8.0)
Язык : English
Default : Да
Forced : Нет
Цветовой диапазон : Limited
Основные цвета : BT.2020
Характеристики трансфера : PQ
Коэффициенты матрицы : BT.2020 non-constant
MasteringDisplay_ColorPrimaries : Display P3
MasteringDisplay_Luminance : min: 0.0050 cd/m2, max: 1000 cd/m2
MaxCLL : 1000 cd/m2
MaxFALL : 730 cd/m2

Аудио #1
Идентификатор : 2
Формат : AC-3
Формат/Информация : Audio Coding 3
Коммерческое название : Dolby Digital
Идентификатор кодека : A_AC3
Продолжительность : 1 ч. 51 м.
Вид битрейта : Постоянный
Битрейт : 448 Кбит/сек
Каналы : 6 каналов
ChannelLayout : L R C LFE Ls Rs
Частота : 48,0 КГц
Частота кадров : 31,250 кадров/сек (1536 SPF)
Метод сжатия : С потерями
Размер потока : 358 Мбайт (1%)
Заголовок : AC3 / 5.1 / 48 kHz / 448 kbps / 16 bits [Дубляж]
Язык : Russian
ServiceKind/String : Complete Main
Default : Да
Forced : Нет

Аудио #2
Идентификатор : 3
Формат : DTS XLL
Формат/Информация : Digital Theater Systems
Коммерческое название : DTS-HD Master Audio
Идентификатор кодека : A_DTS
Продолжительность : 1 ч. 51 м.
Вид битрейта : Переменный
Битрейт : 4375 Кбит/сек
Каналы : 6 каналов
ChannelLayout : C L R Ls Rs LFE
Частота : 48,0 КГц
Частота кадров : 93,750 кадра/сек (512 SPF)
Битовая глубина : 24 бит
Метод сжатия : Без потерь
Размер потока : 3,41 Гбайт (6%)
Заголовок : DTS-HD MA / 5.1 / 48 kHz / 4375 kbps / 24 bits (DTS Core: 5.1 / 48 kHz / 1509 kbps / 24-bit) [Одноголосый закадровый "А.Гаврилов"]
Язык : Russian
Default : Нет
Forced : Нет

Аудио #3
Идентификатор : 4
Формат : DTS XLL
Формат/Информация : Digital Theater Systems
Коммерческое название : DTS-HD Master Audio
Идентификатор кодека : A_DTS
Продолжительность : 1 ч. 51 м.
Вид битрейта : Переменный
Битрейт : 4373 Кбит/сек
Каналы : 6 каналов
ChannelLayout : C L R Ls Rs LFE
Частота : 48,0 КГц
Частота кадров : 93,750 кадра/сек (512 SPF)
Битовая глубина : 24 бит
Метод сжатия : Без потерь
Задержка видео : 3 мс.
Размер потока : 3,41 Гбайт (6%)
Заголовок : DTS-HD MA / 5.1 / 48 kHz / 4373 kbps / 24 bits (DTS Core: 5.1 / 48 kHz / 1509 kbps / 24-bit) [Одноголосый закадровый "В.Королев"]
Язык : Russian
Default : Нет
Forced : Нет

Аудио #4
Идентификатор : 5
Формат : AC-3
Формат/Информация : Audio Coding 3
Коммерческое название : Dolby Digital
Идентификатор кодека : A_AC3
Продолжительность : 1 ч. 51 м.
Вид битрейта : Постоянный
Битрейт : 448 Кбит/сек
Каналы : 6 каналов
ChannelLayout : L R C LFE Ls Rs
Частота : 48,0 КГц
Частота кадров : 31,250 кадров/сек (1536 SPF)
Метод сжатия : С потерями
Задержка видео : 18 мс.
Размер потока : 358 Мбайт (1%)
Заголовок : AC3 / 5.1 / 48 kHz / 448 kbps / 16 bits [Одноголосый закадровый "М.Яроцкий"]
Язык : Russian
ServiceKind/String : Complete Main
Default : Нет
Forced : Нет

Аудио #5
Идентификатор : 6
Формат : AC-3
Формат/Информация : Audio Coding 3
Коммерческое название : Dolby Digital
Идентификатор кодека : A_AC3
Продолжительность : 1 ч. 51 м.
Вид битрейта : Постоянный
Битрейт : 192 Кбит/сек
Каналы : 2 канала
ChannelLayout : L R
Частота : 48,0 КГц
Частота кадров : 31,250 кадров/сек (1536 SPF)
Метод сжатия : С потерями
Размер потока : 153 Мбайт (0%)
Заголовок : AC3 / 2.0 / 48 kHz / 192 kbps / 16 bits [Многоголосый закадровый]
Язык : Ukrainian
ServiceKind/String : Complete Main
Default : Нет
Forced : Нет

Аудио #6
Идентификатор : 7
Формат : DTS XLL X
Формат/Информация : Digital Theater Systems
Коммерческое название : DTS-HD Master Audio
Идентификатор кодека : A_DTS
Продолжительность : 1 ч. 51 м.
Вид битрейта : Переменный
Битрейт : 4730 Кбит/сек
Каналы : 8 каналов
Channel(s)_Original : Object Based
ChannelLayout_Original : Object Based
Частота : 48,0 КГц
Частота кадров : 93,750 кадра/сек (512 SPF)
Битовая глубина : 24 бит
Размер потока : 3,69 Гбайт (6%)
Заголовок : DTS-HD MA / 7.1 / 48 kHz / 4730 kbps / 24 bits (DTS Core: 5.1 / 48 kHz / 1509 kbps / 24-bit) [Оригинал]
Язык : English
Default : Нет
Forced : Нет

Текст #1
Идентификатор : 8
Формат : UTF-8
Идентификатор кодека : S_TEXT/UTF8
Идентификатор кодека/Информация : UTF-8 Plain Text
Продолжительность : 1 ч. 38 м.
Битрейт : 8 бит/сек
ElementCount : 131
Размер потока : 6,02 Кбайт (0%)
Заголовок : Форсированные
Язык : Russian
Default : Нет
Forced : Нет

Текст #2
Идентификатор : 9
Формат : UTF-8
Идентификатор кодека : S_TEXT/UTF8
Идентификатор кодека/Информация : UTF-8 Plain Text
Продолжительность : 1 ч. 40 м.
Битрейт : 73 бит/сек
ElementCount : 985
Размер потока : 54,5 Кбайт (0%)
Заголовок : Русские
Язык : Russian
Default : Нет
Forced : Нет

Текст #3
Идентификатор : 10
Формат : UTF-8
Идентификатор кодека : S_TEXT/UTF8
Идентификатор кодека/Информация : UTF-8 Plain Text
Продолжительность : 1 ч. 40 м.
Битрейт : 44 бит/сек
ElementCount : 927
Размер потока : 32,5 Кбайт (0%)
Заголовок : Английские
Язык : English
Default : Нет
Forced : Нет

Текст #4
Идентификатор : 11
Формат : UTF-8
Идентификатор кодека : S_TEXT/UTF8
Идентификатор кодека/Информация : UTF-8 Plain Text
Продолжительность : 1 ч. 40 м.
Битрейт : 47 бит/сек
ElementCount : 1076
Размер потока : 35,2 Кбайт (0%)
Заголовок : Английские SDH
Язык : English
Default : Нет
Forced : Нет

Меню
00:00:00.000 : en:Chapter 1
00:05:24.073 : en:Chapter 2
00:09:52.133 : en:Chapter 3
00:14:15.479 : en:Chapter 4
00:19:13.402 : en:Chapter 5
00:24:33.680 : en:Chapter 6
00:30:57.647 : en:Chapter 7
00:35:30.962 : en:Chapter 8
00:42:16.367 : en:Chapter 9
00:48:17.686 : en:Chapter 10
00:52:26.893 : en:Chapter 11
00:57:28.528 : en:Chapter 12
01:02:40.590 : en:Chapter 13
01:09:54.231 : en:Chapter 14
01:15:54.216 : en:Chapter 15
01:21:00.981 : en:Chapter 16
01:25:33.419 : en:Chapter 17
01:33:54.962 : en:Chapter 18
01:39:53.946 : en:Chapter 19
01:41:28.499 : en:Chapter 20
скриншот  скриншот  скриншот  
pb.wtf



Скачать Мумия: Трилогия через торрент https://i114.fastpic.ru/big/2020/1008/d6/f81f12eb93bf0c102ac3d31831d450d6.png Скачать фильм Мумия: Трилогия через торрент бесплантно в хорошем качестве Описание: На бескрайних просторах египетской пустыни компания сорвиголов разных национальностей рыщет в поисках несметных сокровищ фараона, ... 10 10 5
Торрент: Зарегистрирован [2020-10-09 08:20] · скачан: 21 раз
Статус: √ проверено
Размер: 205.8 GB
Как cкачать? Как скачать Мумия: Трилогия через торрент | UTorrent

% Раздел Тема Автор DL S | L
Сборники (HD Video) [ 20.44 GB ] Мумия: Трилогия / The Mummy: Trilogy [1999 - 2008 BDRip 720pMVO] VintMosina Скачать
1 | 0
Фильмы (Blu-ray, BD-Remux, HDDVD) [ 104.84 GB ] Мумия: Трилогия / The Mummy: Trilogy [1999-2008 г Blu-ray 1080p] MVO DUB -Lexx- Скачать
1 | 0
Сборники на DVD и Сиквелы [DVDrip, WEB-DLRip, HDrip, BDRip] [ 4.37 GB ] Мумия. Трилогия / The Mummy. Trilogy [1999-2008г HDRip] MVO+DUB Ворон Скачать
3 | 0
Сборники на DVD и Сиквелы [DVDrip, WEB-DLRip, HDrip, BDRip] [ 6.54 GB ] Мумия. Трилогия / The Mummy. Trilogy [1999-2008г BDRip] M@RCU$ Скачать
1 | 0
Сборники (HD Video) [ 43.15 GB ] Мумия. Трилогия / The Mummy. Trilogy [1999 / 2001 / 2008 BDRip 1080p] Ворон Скачать
1 | 0

28-11-2019 20:33  

Отключить всю рекламу на сайте


09-10-2020 09:09 Мумия: Трилогия Скачать торрент  

+++pb.wtf



    Дорогой пользователь! Огромная просьба, поблагодарите релизера, оцените раздачу и оставьте свои комментарий, если Вы скачали Мумия: Трилогия через торрент бесплатно! Внесите свою лепту в развитие PiratBit!
    Комментировать посты могут только пользователи прошедшие не сложную регистрацию
    Показать сообщения:    

    Мумия: Трилогия через торрент
    Скачать бесплатно Мумия: Трилогия
    Мумия: Трилогия скачать торрент
    Мумия: Трилогия смотреть онлайн
    Cкачать фильм Мумия: Трилогия бесплатно
    Мумия: Трилогия скачать торрент в хорошем качестве
    Мумия: Трилогия смотреть онлайн бесплатно в хорошем качестве


    Вы не можете начинать темы
    Вы не можете отвечать на сообщения
    Вы не можете редактировать свои сообщения
    Вы не можете удалять свои сообщения
    Вы не можете голосовать в опросах
    Вы не можете прикреплять файлы к сообщениям
    Вы можете скачивать файлы