2 сезон

iTunes

MVO

1

2 сезон

iTunes

iTunes

1 сезон

RePack

30

Новинка

ВАЖНО

ИГРА 18+

pack

RePack

MK11
pack

Легкие деньги

RePack

jed

RePack

fifa19

RePack

RDR2

RePack

NEED FOR SPEED™ PAYBACK

4 сезон

9 сезон

Бесстыжие 9 сезон

Все сериалы

все сериалы на PB.wtf

RePack

FAR CRY 5

Anonymous, доброй ночи, мы не успеваем собрать деньги на оплату серверов за декабрь и январь, помогите нам пожалуйста в это трудное время. В качестве благодарности мы отключим Вам всю рекламу на сайте (укажите свой ник в строку Ваше имя)!

×
  
Magnet ссылка

Черный рыцарь / Black Knight (Джил Джангер) [2001 г., фэнтези, комедия, приключения, BDRip 720p / 60 FPS, Профессиональный (многоголосый)] от R.G. HD-Films pb.wtf

Черный рыцарь через торрент pb.wtf

Размер: 3.14 GB | Добавлен: 3 мес. 16 д. назад | Торрент скачан:39 раз
Скачать  

09-10-2020 16:05 Черный рыцарь Скачать торрент  

Черный рыцарь / Black Knight
Год выпуска: 2001
Страна: США
Жанр: фэнтези, комедия, приключения
Продолжительность: 01:35:36
Перевод: Профессиональный (многоголосый)
Субтитры: Russian, English

Режиссер: Джил Джангер

Бюджет: $50 000 000
Премьера в мире: 15 ноября 2001

rating

В ролях: Мартин Лоуренс, Марша Томасон, Том Уилкинсон, Винсент Риган, Кевин Конуэй, Эрик Дженсен, Хелен Кэри, Майкл Бургесс, Изабелл Монк, Марк Джеффри Миллер, Зэк Ханнер, Ричард Фуллертон, Грег Купер

Описание: Был обычный летний день. Джамал, как обычно, чистил ров в городском парке развлечений «Средневековый мир». Но судьба уже готовила ему самое весёлое и безумное приключение в его жизни. Случайно перевернувшись через перила моста, Джамал падает в воду и выныривает в Средневековой Англии. Принятый за посла из Нормандии из-за странной одежды и манеры говорить он знакомится с очаровательной заговорщицей, которая хочет свергнуть короля-тирана.


Качество: BDRip 720p / 60 FPS
Формат: MKV
Видео кодек: H.264
Аудио кодек: AC3
Видео: x264, 1280 x 544 ( 2,35:1 ), 4317 kbps, 60,000 fps, ( 0.103 bpp)
Аудио#1: Русский, AC-3, 48.0 KHz, 6 ch, 384 Kbps MVO
Релиз от: Автор рипа: slaventi-69
x264 [info]: frame I:1754 Avg QP:17.91 size: 74342
x264 [info]: frame P:86631 Avg QP:19.10 size: 17768
x264 [info]: frame B:255533 Avg QP:21.36 size: 5571
x264 [info]: consecutive B-frames: 3.9% 4.4% 8.7% 11.5% 58.2% 13.4%


Общее
Уникальный идентификатор : 246974070062381584118895804176012177816 (0xB9CD79C79BC32C32BBA97F3C359C7198)
Полное имя : F:\Black.Knight.(2001).BDRip.720p.(60 Fps).mkv
Формат : Matroska
Версия формата : Version 4
Размер файла : 3,14 Гбайт
Продолжительность : 1 ч. 35 м.
Общий поток : 4705 Кбит/сек
Название фильма : Черный рыцарь / Black Knight (2001) BDRip 720p (60 Fps)
Дата кодирования : UTC 2020-09-28 10:52:03
Программа кодирования : mkvmerge v9.7.1 ('Pandemonium') 64bit
Библиотека кодирования : libebml v1.3.4 + libmatroska v1.4.5

Видео
Идентификатор : 1
Формат : AVC
Формат/Информация : Advanced Video Codec
Профиль формата : High@L4.1
Настройки формата : CABAC / 8 Ref Frames
Параметр CABAC формата : Да
Параметр RefFrames формата : 8 кадров
Идентификатор кодека : V_MPEG4/ISO/AVC
Продолжительность : 1 ч. 35 м.
Битрейт : 4317 Кбит/сек
Ширина : 1280 пикселей
Высота : 544 пикселя
Соотношение сторон : 2,35:1
Режим частоты кадров : Постоянный
Частота кадров : 60,000 кадров/сек
Цветовое пространство : YUV
Субдискретизация насыщенности : 4:2:0
Битовая глубина : 8 бит
Тип развёртки : Прогрессивная
Бит/(Пиксели*Кадры) : 0.103
Размер потока : 2,88 Гбайт (92%)
Заголовок : slaventi-69 ( R.G. HD-Films | 60 fps )
Библиотека кодирования : x264 core 130 r2273 b3065e6
Настройки программы : cabac=1 / ref=9 / deblock=1:-1:-1 / analyse=0x3:0x113 / me=umh / subme=9 / psy=1 / psy_rd=1.00:0.00 / mixed_ref=1 / me_range=32 / chroma_me=1 / trellis=2 / 8x8dct=1 / cqm=0 / deadzone=21,11 / fast_pskip=0 / chroma_qp_offset=-2 / threads=10 / lookahead_threads=4 / sliced_threads=0 / nr=0 / decimate=1 / interlaced=0 / bluray_compat=0 / constrained_intra=0 / bframes=5 / b_pyramid=1 / b_adapt=2 / b_bias=0 / direct=2 / weightb=1 / open_gop=0 / weightp=2 / keyint=600 / keyint_min=23 / scenecut=40 / intra_refresh=0 / rc=crf / mbtree=0 / crf=17.4 / qcomp=0.60 / qpmin=0 / qpmax=69 / qpstep=4 / ip_ratio=1.40 / pb_ratio=1.30 / aq=1:1.00
Язык : English
Default : Да
Forced : Нет

Аудио
Идентификатор : 2
Формат : AC-3
Формат/Информация : Audio Coding 3
Коммерческое название : Dolby Digital
Идентификатор кодека : A_AC3
Продолжительность : 1 ч. 35 м.
Вид битрейта : Постоянный
Битрейт : 384 Кбит/сек
Каналы : 6 каналов
Channel layout : L R C LFE Ls Rs
Частота : 48,0 КГц
Частота кадров : 31,250 кадров/сек (1536 SPF)
Битовая глубина : 16 бит
Метод сжатия : С потерями
Размер потока : 262 Мбайт (8%)
Заголовок : MVO
Язык : Russian
ServiceKind/String : Complete Main
Default : Да
Forced : Нет

Текст #1
Идентификатор : 3
Формат : UTF-8
Идентификатор кодека : S_TEXT/UTF8
Идентификатор кодека/Информация : UTF-8 Plain Text
Продолжительность : 1 ч. 32 м.
Битрейт : 83 бит/сек
ElementCount : 1135
Размер потока : 56,8 Кбайт (0%)
Заголовок : Full
Язык : Russian
Default : Нет
Forced : Нет

Текст #2
Идентификатор : 4
Формат : UTF-8
Идентификатор кодека : S_TEXT/UTF8
Идентификатор кодека/Информация : UTF-8 Plain Text
Продолжительность : 1 ч. 32 м.
Битрейт : 66 бит/сек
ElementCount : 1711
Размер потока : 44,9 Кбайт (0%)
Заголовок : Full
Язык : English
Default : Нет
Forced : Нет

Меню
00:00:00.000 : en:en:Chapter 01
00:09:19.934 : en:en:Chapter 02
00:18:25.771 : en:en:Chapter 03
00:29:46.117 : en:en:Chapter 04
00:39:44.882 : en:en:Chapter 05
00:50:03.041 : en:en:Chapter 06
00:59:31.943 : en:en:Chapter 07
01:09:48.934 : en:en:Chapter 08
01:20:29.574 : en:en:Chapter 09
01:28:38.062 : en:en:Chapter 10
01:35:37.481 : en:en:Chapter 11

Просьба к переливающим на другие сайты, в оформлении указывайте пожалуйста авторство группы R.G. HD-Films pb.wtf



Скачать Черный рыцарь через торрент http://i5.imageban.ru/out/2018/06/24/b82aeaef6aba8c48bf274ef9f6bec32b.png Скачать фильм Черный рыцарь через торрент бесплантно в хорошем качестве Описание: Был обычный летний день. Джамал, как обычно, чистил ров в городском парке развлечений «Средневековый мир». Но судьба уже готовила ... 10 10 3
Info! Золотая раздача, скачанное не засчитывается.
Торрент: Зарегистрирован [2020-10-09 16:05] · скачан: 39 раз
Статус: √ проверено
Размер: 3.14 GB
Как cкачать? Как скачать Черный рыцарь через торрент | UTorrent

28-11-2019 20:33  

Отключить всю рекламу на сайте

18-10-2020 12:06 Черный рыцарь Скачать торрент  

Спасибо автору!
По многочисленным просьбам в 60 fps!
Спасибо за постер!
Жаль не дублированы и не в 1080. pb.wtf



21-10-2020 14:02 Черный рыцарь Скачать торрент  

V&S писал(а):

Спасибо автору!
По многочисленным просьбам в 60 fps!
Спасибо за постер!
Жаль не дублированы и не в 1080.

Пожалуйста. Спасибо за Золото.
На счет 1080p не делаю, т.к. нет возможности проверить на TV, моя лыжа не поддерживает 1080p 60fps, 720p - все нормально ( поэтому только 720p).pb.wtf



    Дорогой пользователь! Огромная просьба, поблагодарите релизера, оцените раздачу и оставьте свои комментарий, если Вы скачали Черный рыцарь через торрент бесплатно! Внесите свою лепту в развитие PiratBit!
    Комментировать посты могут только пользователи прошедшие не сложную регистрацию
    Показать сообщения:    

    Черный рыцарь через торрент
    Скачать бесплатно Черный рыцарь
    Черный рыцарь скачать торрент
    Черный рыцарь смотреть онлайн
    Cкачать фильм Черный рыцарь бесплатно
    Черный рыцарь скачать торрент в хорошем качестве
    Черный рыцарь смотреть онлайн бесплатно в хорошем качестве


    Вы не можете начинать темы
    Вы не можете отвечать на сообщения
    Вы не можете редактировать свои сообщения
    Вы не можете удалять свои сообщения
    Вы не можете голосовать в опросах
    Вы не можете прикреплять файлы к сообщениям
    Вы можете скачивать файлы