Ссылка на приватное зеркало нашего сайта всего за 1$. Внимание количество ограничено!!!

2 сезон

iTunes

1 сезон

1

iTunes

iTunes

iTunes

1 сезон

RePack

30

ИГРА 18+

pack

ВАЖНО

!!Акция!!

Alien_RageХит недели

RePack

MK11
pack

Забери бонус

RePack

jed

!!Акция!!

Alien_Rage

RePack

fifa19

RePack

Assassins Creed: Odyssey

RePack

NEED FOR SPEED™ PAYBACK

4 сезон

9 сезон

Бесстыжие 9 сезон

Все сериалы

все сериалы на PB.wtf

RePack

FAR CRY 5
  

Птица доброго господа / The Good Lord Bird / Сезон: 1 / Серии: 1-2 из 7 (Хайфа Аль-Мансур, Кевин Хукс, Альберт Хьюз) [2020, драма, история, WEB-DL 1080p] 2x [MVO] (NewStudio, LostFilm) pb.wtf

Птица доброго господа через торрент pb.wtf

Размер: 5.52 GB | Добавлен: 5 д. назад | Торрент скачан:1 раз
Скачать  

09-10-2020 17:18 Птица доброго господа Скачать торрент  

Птица доброго господа / The Good Lord Bird
Год выпуска: 2020
Страна: США
Жанр: драма, история
Продолжительность: ~00:57:00
Перевод 1: Профессиональный (многоголосый закадровый) | NewStudio
Перевод 2: Профессиональный (многоголосый закадровый) | LostFilm
Режиссёры: Хайфа Аль-Мансур, Кевин Хукс, Альберт Хьюз
В ролях: Итан Хоук, Джошуа Калеб Джонсон, Бо Напп, Хьюберт Понт дю-Жур, Ник Эверсман, Эллар Колтрейн, Джек Олкотт, Мо Брингс Пленти, Давид Диггс, Стив Зан, Уайатт Рассел, Адам Шапиро, Дэвид Морс, Орландо Джонс, МакКинли Белчер III, Рафаэль Касаль, Квентин Плэр
Описание: Отец Ониона погибает в результате стычки между рабовладельцем и страстным аболиционистом Джоном Брауном. Приняв Ониона за девочку, Браун забирает его в свою армию противников рабства, состоящую в основном из его сыновей. В 1859 году, пытаясь начать восстание рабов, они совершают налёт на армейское хранилище в Харперс-Ферри. Восстание не случается, но их действия в итоге приводят к Гражданской войне в США.

rating
Качество: WEB-DL 1080p (исх. AMZN)
Контейнер: MKV
Видео: 1920x1080, 23.976 fps, MPEG-4 AVC, ~6417 kbps, 0.129 bits/pixel
Аудио#1 Rus: 48 kHz, AC3, 3/2 (L,C,R,l,r) + LFE ch, 640 kbps | NewStudio
Аудио#2 Rus: 48 kHz, AC3, 2/0 (L,R) ch, 384 kbps | LostFilm
Аудио#3 Eng: 48 kHz, E-AC3, 3/2 (L,C,R,l,r) + LFE ch, 640.00 kbps
Субтитры: Русские (Full), английские (SDH)
Реклама: Отсутствует
Перевод: Марина Черепанова (NewStudio)
Очистка от рекламы и подготовка релиза: ad3wal3

    01. Узрите Господа / Meet the Lord

General
Unique ID : 211049857889129957537248902303893189038 (0x9EC6B95F0F17F567B2CBB669053871AE)
Complete name : G:\The.Good.Lord.Bird.S01E01.Meet.the.Lord.AMZN.WEB-DL.1080p.2xRus.Eng.-ad3wal3.mkv
Format : Matroska
Format version : Version 4
File size : 3.24 GiB
Duration : 57 min 26 s
Overall bit rate : 8 084 kb/s
Movie name : Птичка Господа милосердного / The Good Lord Bird
Encoded date : UTC 2020-10-08 19:23:40
Writing application : mkvmerge v8.3.0 ('Over the Horizon') 32bit
Writing library : libebml v1.3.1 + libmatroska v1.4.2
Attachments : poster.png

Video
ID : 1
Format : AVC
Format/Info : Advanced Video Codec
Format profile : High@L4
Format settings : CABAC / 4 Ref Frames
Format settings, CABAC : Yes
Format settings, Reference frames : 4 frames
Codec ID : V_MPEG4/ISO/AVC
Duration : 57 min 26 s
Bit rate mode : Constant
Bit rate : 6 417 kb/s
Nominal bit rate : 10 000 kb/s
Width : 1 920 pixels
Height : 1 080 pixels
Display aspect ratio : 16:9
Frame rate mode : Constant
Frame rate : 23.976 (24000/1001) FPS
Color space : YUV
Chroma subsampling : 4:2:0
Bit depth : 8 bits
Scan type : Progressive
Bits/(Pixel*Frame) : 0.129
Stream size : 2.57 GiB (79%)
Language : English
Default : Yes
Forced : No
Color range : Limited
Color primaries : BT.709
Transfer characteristics : BT.709
Matrix coefficients : BT.709

Audio #1
ID : 2
Format : AC-3
Format/Info : Audio Coding 3
Commercial name : Dolby Digital
Codec ID : A_AC3
Duration : 57 min 26 s
Bit rate mode : Constant
Bit rate : 640 kb/s
Channel(s) : 6 channels
Channel layout : L R C LFE Ls Rs
Sampling rate : 48.0 kHz
Frame rate : 31.250 FPS (1536 SPF)
Compression mode : Lossy
Stream size : 263 MiB (8%)
Title : NewStudio
Language : Russian
Service kind : Complete Main
Default : Yes
Forced : No

Audio #2
ID : 3
Format : AC-3
Format/Info : Audio Coding 3
Commercial name : Dolby Digital
Codec ID : A_AC3
Duration : 57 min 26 s
Bit rate mode : Constant
Bit rate : 384 kb/s
Channel(s) : 2 channels
Channel layout : L R
Sampling rate : 48.0 kHz
Frame rate : 31.250 FPS (1536 SPF)
Compression mode : Lossy
Stream size : 158 MiB (5%)
Title : LostFilm
Language : Russian
Service kind : Complete Main
Default : No
Forced : No

Audio #3
ID : 4
Format : E-AC-3
Format/Info : Enhanced AC-3
Commercial name : Dolby Digital Plus
Codec ID : A_EAC3
Duration : 57 min 26 s
Bit rate mode : Constant
Bit rate : 640 kb/s
Channel(s) : 6 channels
Channel layout : L R C LFE Ls Rs
Sampling rate : 48.0 kHz
Frame rate : 31.250 FPS (1536 SPF)
Compression mode : Lossy
Stream size : 263 MiB (8%)
Language : English
Service kind : Complete Main
Default : No
Forced : No

Text #1
ID : 5
Format : UTF-8
Codec ID : S_TEXT/UTF8
Codec ID/Info : UTF-8 Plain Text
Duration : 54 min 53 s
Bit rate : 146 b/s
Count of elements : 746
Stream size : 58.8 KiB (0%)
Title : Full
Language : Russian
Default : No
Forced : No

Text #2
ID : 6
Format : UTF-8
Codec ID : S_TEXT/UTF8
Codec ID/Info : UTF-8 Plain Text
Duration : 56 min 2 s
Bit rate : 139 b/s
Count of elements : 1257
Stream size : 57.2 KiB (0%)
Title : SDH
Language : English
Default : No
Forced : No

скриншот   скриншот   скриншот  
pb.wtf



Скачать Птица доброго господа через торрент https://i114.fastpic.ru/big/2020/1008/1f/dce5eeb8e560f0f3f947be275bc4da1f.jpg Скачать фильм Птица доброго господа через торрент бесплантно в хорошем качестве Описание: Отец Ониона погибает в результате стычки между рабовладельцем и страстным аболиционистом Джоном Брауном. Приняв Ониона за ... 10 10 1
Торрент: Зарегистрирован [2020-10-17 08:21] · скачан: 1 раз
Статус: √ проверено
Размер: 5.52 GB
Как cкачать? Как скачать Птица доброго господа через торрент | qTorrent

% Раздел Тема Автор DL S | L
Зарубежные сериалы [ 1.3 GB ] Птица доброго господа / Птичка Господа милосердного / The Good Lord Bird / Сезон: 1 / Серии: 1-2 из 7 [2020 исторический WEB-DLRip] MVO [LostFilm] bober100 Скачать
4 | 0
Зарубежные сериалы [ 5.03 GB ] Птица доброго господа / Птичка Господа милосердного / The Good Lord Bird / Сезон: 1 / Серии: 1-2 из 7 [2020 исторический WEB-DL 1080p] MVO [Кравец-Рекордз / Amedia] bober100 Скачать
1 | 0
Зарубежные сериалы [ 2.88 GB ] Птица доброго господа / Птичка Господа милосердного / The Good Lord Bird / Сезон: 1 / Серии: 1-2 из 7 [2020 исторический WEB-DL 720p] MVO [Кравец-Рекордз / Amedia] bober100 Скачать
1 | 0
Зарубежные сериалы [ 2.72 GB ] Птица доброго господа / Птичка Господа милосердного / The Good Lord Bird / Сезон: 1 / Серии: 1-2 из 7 [2020 исторический WEB-DL 720p] MVO [Jaskier] bober100 Скачать
2 | 0
Зарубежные сериалы [ 4.88 GB ] Птица доброго господа / Птичка Господа милосердного / The Good Lord Bird / Сезон: 1 / Серии: 1-2 из 7 [2020 исторический WEB-DL 1080p] MVO [Jaskier] bober100 Скачать
1 | 0
Зарубежные сериалы [ 1.2 GB ] Птица доброго господа / Птичка Господа милосердного / The Good Lord Bird / Сезон: 1 / Серии: 1-2 из 7 [2020 исторический WEB-DLRip] MVO [Jaskier] bober100 Скачать
1 | 0

28-11-2019 20:33  

Отключить всю рекламу на сайте

    Дорогой пользователь! Огромная просьба, поблагодарите релизера, оцените раздачу и оставьте свои комментарий, если Вы скачали Птица доброго господа через торрент бесплатно! Внесите свою лепту в развитие PiratBit!
    Комментировать посты могут только пользователи прошедшие не сложную регистрацию
    Показать сообщения:    

    Птица доброго господа через торрент
    Скачать бесплатно Птица доброго господа
    Птица доброго господа скачать торрент
    Птица доброго господа смотреть онлайн
    Cкачать фильм Птица доброго господа бесплатно
    Птица доброго господа скачать торрент в хорошем качестве
    Птица доброго господа смотреть онлайн бесплатно в хорошем качестве


    Вы не можете начинать темы
    Вы не можете отвечать на сообщения
    Вы не можете редактировать свои сообщения
    Вы не можете удалять свои сообщения
    Вы не можете голосовать в опросах
    Вы не можете прикреплять файлы к сообщениям
    Вы можете скачивать файлы