Ссылка на приватное зеркало нашего сайта всего за 1$. Внимание количество ограничено!!!

2 сезон

iTunes

1 сезон

1

iTunes

iTunes

iTunes

1 сезон

RePack

30

ИГРА 18+

pack

ВАЖНО

!!Акция!!

Alien_RageХит недели

RePack

MK11
pack

Забери бонус

RePack

jed

!!Акция!!

Alien_Rage

RePack

fifa19

RePack

Assassins Creed: Odyssey

RePack

NEED FOR SPEED™ PAYBACK

4 сезон

9 сезон

Бесстыжие 9 сезон

Все сериалы

все сериалы на PB.wtf

RePack

FAR CRY 5
  

Тебе стоило уйти / You Should Have Left (Дэвид Кепп) [2020, Триллер, ужасы, BDRip 1080p] DUB [iTunes] +MVO [HDRezka Studio] pb.wtf

Тебе стоило уйти через торрент pb.wtf

Раздают: 3 [ 0 KB/s ]
Размер: 13.04 GB | Добавлен: 6 д. назад | Торрент скачан:22 раза
Скачать  

09-10-2020 19:21 Тебе стоило уйти Скачать торрент  

Тебе стоило уйти | You Should Have Left
Год выпуска: 2020
Страна: США
Студия: Blumhouse Productions
Жанр: Триллер, ужасы
Продолжительность: 01::33:28
Перевод:
#1: Дублированный | iTunes
#2: Профессиональный (многоголосый) | HDRezka Studio
Субтитры: Русские (2 x Forced, Full), английские

Режиссер: Дэвид Кепп

rating скриншот  

В ролях: Кевин Бэйкон, Аманда Сайфред, Колин Блюмено, Эли Пауэрс, Эйвери Тиу Эссекс, Лоури Энн Ричардс, Джошуа Си Джексон

Описание: Тео Конрой - обеспеченный бывший банкир на пенсии, чей брак с намного более молодой женой-актрисой, Сюзанной, трещит по швам из-за его ревности и мрачных теней в его прошлом. Стремясь наладить отношения, Тео и Сюзанна отправляются вместе с шестилетней дочкой Эллой отдохнуть в съемном загородном доме в Уэльсе. Однако вскоре после приезда Тео начинает подозревать, что некая зловещая сила в доме знает их с Сюзанной секреты даже лучше, чем они сами знают друг друга.

Качество: BDRip 1080p
Формат: MKV

Видео: MPEG-4 AVC, 1920x1038, 18.5 Mbit/s, 23.976 fps
Аудио #01: 48 kHz, AC3, 5.1, 384 Kbps | iTunes | RUS |
Аудио #02: 48 kHz, AC3, 5.1, 448 Kbps | HDRezka Studio | RUS |
Аудио #03: 48 kHz, AC3, 5.1, 640 Kbps | Оригинал | ENG |
скриншот  скриншот  скриншот  скриншот  скриншот  

General
Unique ID : 68242339370243165489396109665256262098 (0x3356FF19C29956A727147BD56FD6C9D2)
Complete name : D:Video111You.Should.Have.Left.2020.D.MVO.BDRip.1080p.seleZen.mkv
Format : Matroska
Format version : Version 4
File size : 13.0 GiB
Duration : 1 h 33 min
Overall bit rate : 20.0 Mb/s
Movie name : You Should Have Left 2020 from селезень
Encoded date : UTC 2020-10-16 18:29:43
Writing application : mkvmerge v40.0.0 ('Old Town Road + Pony') 64-bit
Writing library : libebml v1.3.9 + libmatroska v1.5.2

Video
ID : 1
Format : AVC
Format/Info : Advanced Video Codec
Format profile : High@L4.1
Format settings : CABAC / 4 Ref Frames
Format settings, CABAC : Yes
Format settings, Reference : 4 frames
Codec ID : V_MPEG4/ISO/AVC
Duration : 1 h 33 min
Bit rate : 18.5 Mb/s
Width : 1 920 pixels
Height : 1 038 pixels
Display aspect ratio : 1.85:1
Frame rate mode : Constant
Frame rate : 23.976 (24000/1001) FPS
Color space : YUV
Chroma subsampling : 4:2:0
Bit depth : 8 bits
Scan type : Progressive
Bits/(Pixel*Frame) : 0.387
Stream size : 12.1 GiB (93%)
Title : Encoded by seleZen
Writing library : x264 core 148 r2705kMod 3f5ed56
Encoding settings : cabac=1 / ref=4 / deblock=1:-2:-2 / analyse=0x3:0x133 / me=umh / subme=10 / psy=1 / fade_compensate=0.00 / psy_rd=1.04:0.03 / mixed_ref=1 / me_range=32 / chroma_me=1 / trellis=2 / 8x8dct=1 / cqm=0 / deadzone=21, 11 / fast_pskip=0 / chroma_qp_offset=-3 / threads=24 / lookahead_threads=4 / sliced_threads=0 / nr=0 / decimate=0 / interlaced=0 / bluray_compat=0 / constrained_intra=0 / fgo=0 / bframes=9 / b_pyramid=2 / b_adapt=2 / b_bias=0 / direct=3 / weightb=1 / open_gop=0 / weightp=2 / keyint=240 / keyint_min=23 / scenecut=40 / intra_refresh=0 / rc_lookahead=50 / rc=2pass / mbtree=0 / bitrate=18500 / ratetol=1.0 / qcomp=0.60 / qpmin=0 / qpmax=51 / qpstep=4 / cplxblur=20.0 / qblur=0.5 / vbv_maxrate=50000 / vbv_bufsize=62500 / nal_hrd=none / filler=0 / ip_ratio=1.40 / pb_ratio=1.30 / aq=3:0.80
Language : English
Default : Yes
Forced : No

Audio #1
ID : 2
Format : AC-3
Format/Info : Audio Coding 3
Commercial name : Dolby Digital
Codec ID : A_AC3
Duration : 1 h 33 min
Bit rate mode : Constant
Bit rate : 384 kb/s
Channel(s) : 6 channels
Channel layout : L R C LFE Ls Rs
Sampling rate : 48.0 kHz
Frame rate : 31.250 FPS (1536 SPF)
Compression mode : Lossy
Stream size : 257 MiB (2%)
Title : Dub [iTunes]
Language : Russian
Service kind : Complete Main
Default : Yes
Forced : Yes

Audio #2
ID : 3
Format : AC-3
Format/Info : Audio Coding 3
Commercial name : Dolby Digital
Codec ID : A_AC3
Duration : 1 h 33 min
Bit rate mode : Constant
Bit rate : 448 kb/s
Channel(s) : 6 channels
Channel layout : L R C LFE Ls Rs
Sampling rate : 48.0 kHz
Frame rate : 31.250 FPS (1536 SPF)
Compression mode : Lossy
Stream size : 300 MiB (2%)
Title : MVO [HDRezka Studio]
Language : Russian
Service kind : Complete Main
Default : No
Forced : No

Audio #3
ID : 4
Format : AC-3
Format/Info : Audio Coding 3
Commercial name : Dolby Digital
Codec ID : A_AC3
Duration : 1 h 33 min
Bit rate mode : Constant
Bit rate : 640 kb/s
Channel(s) : 6 channels
Channel layout : L R C LFE Ls Rs
Sampling rate : 48.0 kHz
Frame rate : 31.250 FPS (1536 SPF)
Compression mode : Lossy
Stream size : 428 MiB (3%)
Title : Original
Language : English
Service kind : Complete Main
Default : No
Forced : No

Text #1
ID : 5
Format : UTF-8
Codec ID : S_TEXT/UTF8
Codec ID/Info : UTF-8 Plain Text
Duration : 1 h 17 min
Bit rate : 1 b/s
Count of elements : 18
Stream size : 937 Bytes (0%)
Title : Forced [For iTunes]
Language : Russian
Default : Yes
Forced : Yes

Text #2
ID : 6
Format : UTF-8
Codec ID : S_TEXT/UTF8
Codec ID/Info : UTF-8 Plain Text
Duration : 1 h 26 min
Bit rate : 2 b/s
Count of elements : 35
Stream size : 1.39 KiB (0%)
Title : Forced [For HDRezka Studio]
Language : Russian
Default : No
Forced : No

Text #3
ID : 7
Format : UTF-8
Codec ID : S_TEXT/UTF8
Codec ID/Info : UTF-8 Plain Text
Duration : 1 h 31 min
Bit rate : 63 b/s
Count of elements : 854
Stream size : 42.3 KiB (0%)
Title : Full [iTunes]
Language : Russian
Default : No
Forced : No

Text #4
ID : 8
Format : UTF-8
Codec ID : S_TEXT/UTF8
Codec ID/Info : UTF-8 Plain Text
Duration : 1 h 29 min
Bit rate : 49 b/s
Count of elements : 1223
Stream size : 32.4 KiB (0%)
Title : SDH
Language : English
Default : No
Forced : No

Menu
00:00:00.000 : en:Chapter 1
00:04:48.580 : en:Chapter 2
00:07:12.057 : en:Chapter 3
00:12:00.887 : en:Chapter 4
00:17:07.777 : en:Chapter 5
00:23:32.578 : en:Chapter 6
00:28:58.612 : en:Chapter 7
00:32:40.917 : en:Chapter 8
00:39:53.766 : en:Chapter 9
00:44:55.902 : en:Chapter 10
00:47:13.914 : en:Chapter 11
00:49:41.687 : en:Chapter 12
00:54:14.543 : en:Chapter 13
01:00:14.236 : en:Chapter 14
01:04:02.630 : en:Chapter 15
01:08:27.228 : en:Chapter 16
01:13:05.298 : en:Chapter 17
01:18:15.357 : en:Chapter 18
01:24:11.338 : en:Chapter 19
01:27:47.971 : en:Chapter 20

pb.wtf



Скачать Тебе стоило уйти через торрент https://i114.fastpic.ru/big/2020/1016/59/83761618bd8c46f7391bf1309ec90759.jpg Скачать фильм Тебе стоило уйти через торрент бесплантно в хорошем качестве Описание: Тео Конрой - обеспеченный бывший банкир на пенсии, чей брак с намного более молодой женой-актрисой, Сюзанной, трещит по швам ... 10 10 7
Торрент: Зарегистрирован [2020-10-17 00:31] · скачан: 22 раз
Статус: √ проверено
Размер: 13.04 GB
Как cкачать? Как скачать Тебе стоило уйти через торрент | qTorrent

% Раздел Тема Автор DL S | L
Фильмы 2019-2020 [DVDrip, WEB-DLRip, HDrip] (DUB, MVO) [ 1.45 GB ] Тебе стоило уйти / You Should Have Left [2020 BDRip-AVC] MVO [HDRezka Studio] - ExKinoRay Enigma2010 Скачать
13 | 2
Фильмы 2019-2020 [DVDrip, WEB-DLRip, HDrip] (DUB, MVO) [ 1.46 GB ] Тебе стоило уйти / You Should Have Left [2020 BDRip] MVO [HDRezka Studio] bober100 Скачать
2 | 0
Фильмы 2019-2020 [DVDrip, WEB-DLRip, HDrip] (DUB, MVO) [ 1.46 GB ] Тебе стоило уйти / You Should Have Left [2020 BDRip] bober100 Скачать
4 | 0
Фильмы (Blu-ray, BD-Remux, HDDVD) [ 26.14 GB ] Тебе стоило уйти / You Should Have Left [2020 BD Remux 1080p] +MVO [HDRezka Studio] bober100 Скачать
1 | 0
Фильмы [HD 720p, 1080p] (Хороший звук DUB, MVO) [ 7.49 GB ] Тебе стоило уйти / You Should Have Left [2020 BDRip 720p] +MVO [HDRezka Studio] bober100 Скачать
2 | 0

28-11-2019 20:33  

Отключить всю рекламу на сайте

    Дорогой пользователь! Огромная просьба, поблагодарите релизера, оцените раздачу и оставьте свои комментарий, если Вы скачали Тебе стоило уйти через торрент бесплатно! Внесите свою лепту в развитие PiratBit!
    Комментировать посты могут только пользователи прошедшие не сложную регистрацию
    Показать сообщения:    

    Тебе стоило уйти через торрент
    Скачать бесплатно Тебе стоило уйти
    Тебе стоило уйти скачать торрент
    Тебе стоило уйти смотреть онлайн
    Cкачать фильм Тебе стоило уйти бесплатно
    Тебе стоило уйти скачать торрент в хорошем качестве
    Тебе стоило уйти смотреть онлайн бесплатно в хорошем качестве


    Вы не можете начинать темы
    Вы не можете отвечать на сообщения
    Вы не можете редактировать свои сообщения
    Вы не можете удалять свои сообщения
    Вы не можете голосовать в опросах
    Вы не можете прикреплять файлы к сообщениям
    Вы можете скачивать файлы