Ссылка на приватное зеркало нашего сайта всего за 1$. Внимание количество ограничено!!!

2 сезон

iTunes

1 сезон

1

iTunes

iTunes

iTunes

1 сезон

RePack

30

ИГРА 18+

pack

ВАЖНО

!!Акция!!

Alien_RageХит недели

RePack

MK11
pack

Забери бонус

RePack

jed

!!Акция!!

Alien_Rage

RePack

fifa19

RePack

Assassins Creed: Odyssey

RePack

NEED FOR SPEED™ PAYBACK

4 сезон

9 сезон

Бесстыжие 9 сезон

Все сериалы

все сериалы на PB.wtf

RePack

FAR CRY 5
  

Птичка в клетке / Серии: 1-2 из 2 (Сергей Краснов) [2020, Детектив, SATRip] pb.wtf

Птичка в клетке через торрент pb.wtf

Размер: 1.17 GB | Добавлен: 17 д. назад | Торрент скачан:19 раз
Скачать  

10-10-2020 05:25 Птичка в клетке Скачать торрент  

Птичка в клетке
Год выпуска: 2020
Страна: Россия

Жанр: Детектив
Продолжительность: ~ 00:44:23
Субтитры: отсутствуют

Режиссер: Сергей Краснов



В ролях: Анастасия Городенцева, Сергей Перегудов, Владимир Гуськов (II), Натали Старынкевич, Анастасия Чепелюк, Любовь Зайцева, Марк-Малик Мурашкин, Александр Левин (II), Юрий Шлыков, Майя Вознесенская

Описание: Жизнь Марии переворачивает возвращение давно забытого возлюбленного. Он стал богат, успешен, у него другая женщина, и все же прежняя любовь просыпается снова. На пути к их возможному счастью встает загадочная смерть чужестранки. Марии придется разгадать ее тайну, даже если разгадка окажется страшнее неизвестности.

Качество: SATRip
Формат: AVI

Видео: XviD, ~ 1695 Кбит/с, 720x400
Аудио: MP3, 2 ch, 192 Кбит/с
скриншот  скриншот  скриншот  скриншот  

Общее
Полное имя : C:\Ptichka.v.kletke.2020.XviD.SATRip.25Kuzmich\Ptichka.v.kletke.(01.seriya.iz.02).XviD.SATRip.25Kuzmich.avi
Формат : AVI
Формат/Информация : Audio Video Interleave
Размер файла : 600 Мбайт
Продолжительность : 44 м. 13 с.
Общий поток : 1896 Кбит/сек
Программа кодирования : VirtualDubMod 1.5.10.3 | www.virtualdub-fr.org || (build 2550/release)
Библиотека кодирования : VirtualDubMod build 2550/release

Видео
Идентификатор : 0
Формат : MPEG-4 Visual
Профиль формата : Advanced Simple@L5
Настройки формата : BVOP1
Параметр BVOP формата : 1
Параметр QPel формата : Нет
Параметр GMC формата : Без точки перехода
Параметр матрицы формата : Default (MPEG)
Идентификатор кодека : XVID
Идентификатор кодека/Подсказка : XviD
Продолжительность : 44 м. 13 с.
Битрейт : 1695 Кбит/сек
Ширина : 720 пикселей
Высота : 400 пикселей
Соотношение сторон : 16:9
Частота кадров : 25,000 кадров/сек
Цветовое пространство : YUV
Субдискретизация насыщенности : 4:2:0
Битовая глубина : 8 бит
Тип развёртки : Прогрессивная
Метод сжатия : С потерями
Бит/(Пиксели*Кадры) : 0.225
Размер потока : 512 Мбайт (85%)
Библиотека кодирования : XviD 73

Аудио
Идентификатор : 1
Формат : MPEG Audio
Версия формата : Version 1
Профиль формата : Layer 3
Настройки формата : Joint stereo
Идентификатор кодека : 55
Идентификатор кодека/Подсказка : MP3
Продолжительность : 44 м. 13 с.
Вид битрейта : Постоянный
Битрейт : 192 Кбит/сек
Каналы : 2 канала
Частота : 48,0 КГц
Частота кадров : 41,667 кадра/сек (1152 SPF)
Метод сжатия : С потерями
Размер потока : 60,7 Мбайт (10%)
Выравнивание : Соединение по промежуткам
Библиотека кодирования : LAME3.99r
Настройки программы : -m j -V 4 -q 2 -lowpass 18.6 -b 192

pb.wtf



Скачать Птичка в клетке через торрент https://i114.fastpic.ru/big/2020/1009/de/10823ed0fd633962ee6651e1637e7fde.jpg Скачать фильм Птичка в клетке через торрент бесплантно в хорошем качестве Описание: Жизнь Марии переворачивает возвращение давно забытого возлюбленного. Он стал богат, успешен, у него другая женщина, и все же ... 9.3 10 3
Торрент: Зарегистрирован [2020-10-10 05:25] · скачан: 19 раз
Статус: √ проверено
Размер: 1.17 GB
Как cкачать? Как скачать Птичка в клетке через торрент | qTorrent

% Раздел Тема Автор DL S | L
Наши сериалы [ 3.58 GB ] Птичка в клетке / Серии: 1-2 из 2 [2020 HDTV 1080i] bober100 Скачать
6 | 0
Наши сериалы [ 1.11 GB ] Птичка в клетке / Серии: 1-2 из 2 [2020 WEB-DLRip] bober100 Скачать
1 | 1
Наши сериалы [ 1.11 GB ] Птичка в клетке / Серии: 1-2 из 2 [2020 WEB-DLRip-AVC] bober100 Скачать
3 | 0

28-11-2019 20:33  

Отключить всю рекламу на сайте

    Дорогой пользователь! Огромная просьба, поблагодарите релизера, оцените раздачу и оставьте свои комментарий, если Вы скачали Птичка в клетке через торрент бесплатно! Внесите свою лепту в развитие PiratBit!
    Комментировать посты могут только пользователи прошедшие не сложную регистрацию
    Показать сообщения:    

    Птичка в клетке через торрент
    Скачать бесплатно Птичка в клетке
    Птичка в клетке скачать торрент
    Птичка в клетке смотреть онлайн
    Cкачать фильм Птичка в клетке бесплатно
    Птичка в клетке скачать торрент в хорошем качестве
    Птичка в клетке смотреть онлайн бесплатно в хорошем качестве


    Вы не можете начинать темы
    Вы не можете отвечать на сообщения
    Вы не можете редактировать свои сообщения
    Вы не можете удалять свои сообщения
    Вы не можете голосовать в опросах
    Вы не можете прикреплять файлы к сообщениям
    Вы можете скачивать файлы