Ссылка на приватное зеркало нашего сайта всего за 1$. Внимание количество ограничено!!!

2 сезон

iTunes

1 сезон

1

2 сезон

2 сезон

iTunes

1 сезон

RePack

30

Новинка

ВАЖНО

ИГРА 18+

pack

RePack

MK11
pack

Забери бонус

RePack

jed

!!Акция!!

Alien_Rage

RePack

fifa19

RePack

Assassins Creed: Odyssey

RePack

NEED FOR SPEED™ PAYBACK

4 сезон

9 сезон

Бесстыжие 9 сезон

Все сериалы

все сериалы на PB.wtf

RePack

FAR CRY 5
  

Плыви к золоту / Swimming for Gold (Хейли МакФарлейн) [2020, Семейный, спорт, WEB-DL 1080p] DUB [iTunes] pb.wtf

Плыви к золоту через торрент pb.wtf

Раздают: 1 [ 0 KB/s ]
Размер: 3.52 GB | Добавлен: 1 мес. 22 д. назад | Торрент скачан:33 раза
Скачать  

10-10-2020 18:59 Плыви к золоту Скачать торрент  

Плыви к золоту | Swimming for Gold
Год выпуска: 2020
Страна: Австралия
Студия: The Steve Jaggi Company, Head Gear Films, Metrol Technology
Жанр: Семейный, спорт
Продолжительность: 01:31:11
Перевод: Дублированный | iTunes
Субтитры: Русские (Forced)

Режиссер: Хейли МакФарлейн

rating

В ролях: Пейтон Лист, Лорен Эспозито, Дэниэл Нидс, Оливия Нардини, Джорел Марчинке, Рэй Чонг Ни, Мартин Дингл Уолл, Кэндис Дави, Алекса Кертис, Лорен Аркадио

Описание: Клэр по воле отца, бывшего олимпийского чемпиона, отправляется в Австралию тренировать мужскую команду по плаванию. Здесь ей предстоит лицом к лицу встретиться со своей давней соперницей и побороть свой тайный страх, чтобы подготовить команду к заплыву, который решит судьбу лагеря.

Качество: WEB-DL 1080p
Формат: MKV

Видео: MPEG-4 AVC, 1912x1072, 5141 kbps, 23.976 fps
Аудио Russian: АС3, 6 ch, 48 kHz, 384 kbps - DUB, iTunes
скриншот  скриншот  скриншот  скриншот  скриншот  

General
Unique ID : 34143210448642917566319034927228477214 (0x19AFBE3E6D3B6227182352F0409D5F1E)
Complete name : SWMMNG4GOLD_2020_WEB-DL_1080p-BLUEBIRD.mkv
Format : Matroska
Format version : Version 4
File size : 3.52 GiB
Duration : 1 h 31 min
Overall bit rate : 5 527 kb/s
Encoded date : UTC 2020-10-09 18:21:21
Writing application : mkvmerge v43.0.0 ('The Quartermaster') 64-bit
Writing library : libebml v1.3.10 + libmatroska v1.5.2
Cover : Yes
Attachments : cover.jpg

Video
ID : 1
Format : AVC
Format/Info : Advanced Video Codec
Format profile : High@L4
Format settings : CABAC / 4 Ref Frames
Format settings, CABAC : Yes
Format settings, Reference : 4 frames
Codec ID : V_MPEG4/ISO/AVC
Duration : 1 h 31 min
Bit rate : 5 141 kb/s
Width : 1 912 pixels
Height : 1 072 pixels
Display aspect ratio : 16:9
Frame rate mode : Constant
Frame rate : 23.976 (24000/1001) FPS
Color space : YUV
Chroma subsampling : 4:2:0
Bit depth : 8 bits
Scan type : Progressive
Bits/(Pixel*Frame) : 0.105
Stream size : 3.27 GiB (93%)
Language : English
Default : Yes
Forced : No
Color range : Limited
Color primaries : BT.709
Transfer characteristics : BT.709
Matrix coefficients : BT.709

Audio
ID : 2
Format : AC-3
Format/Info : Audio Coding 3
Commercial name : Dolby Digital
Codec ID : A_AC3
Duration : 1 h 31 min
Bit rate mode : Constant
Bit rate : 384 kb/s
Channel(s) : 6 channels
Channel layout : L R C LFE Ls Rs
Sampling rate : 48.0 kHz
Frame rate : 31.250 FPS (1536 SPF)
Bit depth : 16 bits
Compression mode : Lossy
Stream size : 250 MiB (7%)
Title : [DUB] DD 5.1 @ 384 kbps (iTunes)
Language : Russian
Service kind : Complete Main
Default : Yes
Forced : No

Text
ID : 3
Format : UTF-8
Codec ID : S_TEXT/UTF8
Codec ID/Info : UTF-8 Plain Text
Duration : 1 h 15 min
Bit rate : 0 b/s
Count of elements : 13
Stream size : 517 Bytes (0%)
Title : Forced
Language : Russian
Default : Yes
Forced : No

Menu
00:00:00.000 : en:1
00:04:17.000 : en:2
00:14:25.000 : en:3
00:24:42.000 : en:4
00:34:29.000 : en:5
00:43:43.000 : en:6
00:53:15.000 : en:7
01:02:23.000 : en:8
01:12:42.000 : en:9
01:22:39.000 : en:10
01:29:23.000 : en:11

pb.wtf



Скачать Плыви к золоту через торрент https://i5.imageban.ru/out/2020/10/10/559d0197920bd9864d72eb9dee7021ca.jpg Скачать фильм Плыви к золоту через торрент бесплантно в хорошем качестве Описание: Клэр по воле отца, бывшего олимпийского чемпиона, отправляется в Австралию тренировать мужскую команду по плаванию. Здесь ей ... 10 10 6
Торрент: Зарегистрирован [2020-10-10 18:59] · скачан: 33 раз
Статус: √ проверено
Размер: 3.52 GB
Как cкачать? Как скачать Плыви к золоту через торрент | qTorrent

% Раздел Тема Автор DL S | L
Фильмы 2019-2020 [DVDrip, WEB-DLRip, HDrip] (DUB, MVO) [ 1.46 GB ] Плыви к золоту / Swimming for Gold [2020 WEB-DLRip] bober100 Скачать
1 | 0
Фильмы 2019-2020 [DVDrip, WEB-DLRip, HDrip] (DUB, MVO) [ 745 MB ] Плыви к золоту / Swimming for Gold [2020 WEB-DLRip] bober100 Скачать
1 | 0

28-11-2019 20:33  

Отключить всю рекламу на сайте

    Дорогой пользователь! Огромная просьба, поблагодарите релизера, оцените раздачу и оставьте свои комментарий, если Вы скачали Плыви к золоту через торрент бесплатно! Внесите свою лепту в развитие PiratBit!
    Комментировать посты могут только пользователи прошедшие не сложную регистрацию
    Показать сообщения:    

    Плыви к золоту через торрент
    Скачать бесплатно Плыви к золоту
    Плыви к золоту скачать торрент
    Плыви к золоту смотреть онлайн
    Cкачать фильм Плыви к золоту бесплатно
    Плыви к золоту скачать торрент в хорошем качестве
    Плыви к золоту смотреть онлайн бесплатно в хорошем качестве


    Вы не можете начинать темы
    Вы не можете отвечать на сообщения
    Вы не можете редактировать свои сообщения
    Вы не можете удалять свои сообщения
    Вы не можете голосовать в опросах
    Вы не можете прикреплять файлы к сообщениям
    Вы можете скачивать файлы