2 сезон

iTunes

MVO

1

2 сезон

iTunes

iTunes

1 сезон

RePack

30

Ultimate

ВАЖНО

ИГРА 18+

pack

RePack

MK11
pack

Легкие деньги

RePack

jed

RePack

fifa19

RePack

RDR2

RePack

NEED FOR SPEED™ PAYBACK

4 сезон

9 сезон

Бесстыжие 9 сезон

Все сериалы

все сериалы на PB.wtf

RePack

FAR CRY 5

Anonymous, добрый вечер, мы не успеваем собрать деньги на оплату серверов за декабрь и январь, помогите нам пожалуйста в это трудное время. В качестве благодарности мы отключим Вам всю рекламу на сайте (укажите свой ник в строку Ваше имя)!

×
  
Magnet ссылка

Золото джунглей / Gold / Oro (Агустин Диас Янес) [2017, Приключения, исторический, драма, HDRip-AVC] [MVO] [Синема Ус] | от Mediabit pb.wtf

Золото джунглей через торрент pb.wtf

Раздают: 2 [ 0.1 KB/s ]
Размер: 1.43 GB | Добавлен: 3 мес. 6 д. назад | Торрент скачан:317 раз
Скачать  

11-10-2020 03:48 Золото джунглей Скачать торрент  


Золото джунглей / Gold / Oro
Информация о фильме:
Название: Золото джунглей
Оригинальное название: Gold / Oro
Год выхода: 2017
Жанр: Приключения, исторический, драма
Режиссер: Агустин Диас Янес

В ролях: Рауль Аревало, Барбара Ленни, Оскар Хаенада, Хосе Коронадо, Хосе Мануэль Сервино, Антонио Дечент, Хуан Хосе Бальеста, Луис Кальехо, Анна Кастильо, Андрес Гертрудикс, Хосеан Бенгоэчеа

Описание: 1538 год, джунгли Амазонии. Король Испании и император Священной Римской империи Карл V посылает экспедицию испанских солдат на поиски легендарного Золотого города. Оказавшись в одиночестве в джунглях, солдаты должны противостоять не только враждебным племенам, но и внутренним распрям. Главой экспедиции назначен пожилой и слабый здоровьем дон Гонзало, женатый на молодой красавице донье Ане. Однако на лидерство и донью Ану претендуют правая рука Гонзало Альферез Горриаменди и солдат Мартин Де Вила. Соперничество и ненависть между ними могут оказаться куда опаснее, чем джунгли и скрывающиеся в них туземцы.

rating

Страна: Испания
Студия: Áralan Films S.L.
Продолжительность: 01:39:01
Перевод: Любительский (многоголосый, закадровый) - Синема Ус



Информация о файле:
Кодек: AVC
Формат: MKV
Качество: HDRip-AVC
Видео: MPEG-4 AVC, 1024x428 (2.40:1), 25.000 fps, 1874 kb/s, 0.171
Аудио RU: AC3, 2 ch, 48 kHz, 192 kbps
Навигация по главам: Есть

x264 info: frame I:871 Avg QP:14.27 size: 70265
x264 info: frame P:37527 Avg QP:17.56 size: 20127
x264 info: frame B:110127 Avg QP:19.18 size: 5200
x264 info: consecutive B-frames: 3.3% 4.2% 8.8% 44.9% 12.9% 14.8% 3.2% 3.7% 0.9% 0.6% 0.5% 0.6% 1.7%
======================================
General
Unique ID : 104463664421063289481260087452725226681 (0x4E96F84E0BE50E0FB4FD27E702BD2CB9)
Complete name : D:uTorrentРипы_от_wolf1245_MediaBitЗолото - Oro (2017) from wolf1245 & MediaBit.mkv
Format : Matroska
Format version : Version 4
File size : 1.43 GiB
Duration : 1 h 39 min
Overall bit rate : 2 064 kb/s
Movie name : Золото / Oro (2017) from wolf1245 & MediaBit
Encoded date : UTC 2020-10-11 03:30:50
Writing application : mkvmerge v51.0.0 ('I Wish') 64-bit
Writing library : libebml v1.4.0 + libmatroska v1.6.2
Video
ID : 1
Format : AVC
Format/Info : Advanced Video Codec
Format profile : High@L4.1
Format settings : CABAC / 12 Ref Frames
Format settings, CABAC : Yes
Format settings, Reference frames : 12 frames
Codec ID : V_MPEG4/ISO/AVC
Duration : 1 h 39 min
Bit rate : 1 874 kb/s
Width : 1 024 pixels
Height : 428 pixels
Display aspect ratio : 2.40:1
Frame rate mode : Constant
Frame rate : 25.000 FPS
Color space : YUV
Chroma subsampling : 4:2:0
Bit depth : 8 bits
Scan type : Progressive
Bits/(Pixel*Frame) : 0.171
Stream size : 1.29 GiB (91%)
Title : wolf1245 & MediaBit
Writing library : x264 core 157 r2958 57baac4
Encoding settings : cabac=1 / ref=12 / deblock=1:-3:-3 / analyse=0x3:0x133 / me=umh / subme=11 / psy=1 / psy_rd=1.02:0.06 / mixed_ref=1 / me_range=48 / chroma_me=1 / trellis=2 / 8x8dct=1 / cqm=0 / deadzone=21,11 / fast_pskip=0 / chroma_qp_offset=-3 / threads=10 / lookahead_threads=2 / sliced_threads=0 / nr=0 / decimate=0 / interlaced=0 / bluray_compat=0 / constrained_intra=0 / bframes=12 / b_pyramid=2 / b_adapt=2 / b_bias=0 / direct=3 / weightb=1 / open_gop=0 / weightp=2 / keyint=250 / keyint_min=25 / scenecut=40 / intra_refresh=0 / rc_lookahead=60 / rc=2pass / mbtree=0 / bitrate=1874 / ratetol=1.0 / qcomp=0.60 / qpmin=0 / qpmax=69 / qpstep=4 / cplxblur=20.0 / qblur=0.5 / vbv_maxrate=50000 / vbv_bufsize=62500 / nal_hrd=none / filler=0 / ip_ratio=1.40 / pb_ratio=1.30 / aq=2:0.80
Language : Spanish
Default : Yes
Forced : No
Color range : Limited
Color primaries : BT.709
Transfer characteristics : BT.709
Matrix coefficients : BT.709
Audio
ID : 2
Format : AC-3
Format/Info : Audio Coding 3
Commercial name : Dolby Digital
Codec ID : A_AC3
Duration : 1 h 39 min
Bit rate mode : Constant
Bit rate : 192 kb/s
Channel(s) : 2 channels
Channel layout : L R
Sampling rate : 48.0 kHz
Frame rate : 31.250 FPS (1536 SPF)
Compression mode : Lossy
Stream size : 136 MiB (9%)
Title : MVO [Синема УС] MediaBit
Language : Russian
Service kind : Complete Main
Default : Yes
Forced : No
Menu
00:00:00.000 : :(01)00:00:00:000
00:01:47.000 : :(02)00:01:47:000
00:06:51.720 : :(03)00:06:51:720
00:16:20.440 : :(04)00:16:20:440
00:24:44.680 : :(05)00:24:44:680
00:31:57.800 : :(06)00:31:57:800
00:42:24.040 : :(07)00:42:24:040
00:50:31.840 : :(08)00:50:31:840
00:57:17.480 : :(09)00:57:17:480
01:02:08.320 : :(10)01:02:08:320
01:12:10.760 : :(11)01:12:10:760
01:15:44.720 : :(12)01:15:44:720
01:20:07.600 : :(13)01:20:07:600
01:26:19.240 : :(14)01:26:19:240
01:29:53.920 : :(15)01:29:53:920
01:33:31.080 : :(16)01:33:31:080
Релиз от: & &
pb.wtf



Скачать Золото джунглей через торрент https://a.radikal.ru/a38/2010/00/421db0b8bbfe.jpg Скачать фильм Золото джунглей через торрент бесплантно в хорошем качестве Описание: 1538 год, джунгли Амазонии. Король Испании и император Священной Римской империи Карл V посылает экспедицию испанских солдат на ... 10 10 8
Торрент: Зарегистрирован [2020-10-11 03:48] · скачан: 317 раз
Статус: T временная
Размер: 1.43 GB
Как cкачать? Как скачать Золото джунглей через торрент | UTorrent

28-11-2019 20:33  

Отключить всю рекламу на сайте

    Дорогой пользователь! Огромная просьба, поблагодарите релизера, оцените раздачу и оставьте свои комментарий, если Вы скачали Золото джунглей через торрент бесплатно! Внесите свою лепту в развитие PiratBit!
    Комментировать посты могут только пользователи прошедшие не сложную регистрацию
    Показать сообщения:    

    Золото джунглей через торрент
    Скачать бесплатно Золото джунглей
    Золото джунглей скачать торрент
    Золото джунглей смотреть онлайн
    Cкачать фильм Золото джунглей бесплатно
    Золото джунглей скачать торрент в хорошем качестве
    Золото джунглей смотреть онлайн бесплатно в хорошем качестве


    Вы не можете начинать темы
    Вы не можете отвечать на сообщения
    Вы не можете редактировать свои сообщения
    Вы не можете удалять свои сообщения
    Вы не можете голосовать в опросах
    Вы не можете прикреплять файлы к сообщениям
    Вы можете скачивать файлы