2 сезон

iTunes

1 сезон

1

iTunes

iTunes

iTunes

1 сезон

RePack

30

ИГРА 18+

pack

ВАЖНО

!!Акция!!

Alien_RageХит недели

RePack

MK11
pack

Забери бонус

RePack

jed

!!Акция!!

Alien_Rage

RePack

fifa19

RePack

Assassins Creed: Odyssey

RePack

NEED FOR SPEED™ PAYBACK

4 сезон

9 сезон

Бесстыжие 9 сезон

Все сериалы

все сериалы на PB.wtf

RePack

FAR CRY 5
  

Таксистка / Серии: 1-4 из 4 (Евгений Сологалов) [2019, Мелодрама, HDTVRip 720p] pb.wtf

Таксистка через торрент pb.wtf

Раздают: 5 [ 0 KB/s ]
Размер: 4.8 GB | Добавлен: 19 д. назад | Торрент скачан:23 раза
Скачать  

12-10-2020 04:55 Таксистка Скачать торрент  

Таксистка
Год выпуска: 2019
Страна: Россия, Украина
Студия: "Киевтелефильм", Компания "Армада Филмз Продакшн"
Жанр: Мелодрама
Продолжительность: ~ 00:48:00
Перевод: Не требуется
Субтитры: отсутствуют

Режиссер: Евгений Сологалов



В ролях: Мария Куликова, Мелания Волотовская, Виталий Кудрявцев, Ирина Новак, Михаил Химичев, Алексей Сахаров (II), Елена Ларина (III), Татьяна Малкова

Описание: Красивая и успешная женщина по имени Наташа вдруг лишается практически всего: мужа Олега, уважения дочери Насти, карьеры, счастья, надежды на будущее. Лучший друг семьи, партнёр по бизнесу, оказывается коварным врагом, подставившим Олега. Состояние потеряно, Олег погибает, дочь Настя не может простить Наташе внезапно утраченное семейное счастье...

Качество: HDTVRip 720p
Формат: MKV

Видео: MPEG-4 AVC, ~ 1280x720 (16:9), 25 fps, AVC MPEG-4 (x264), High@L4.1 ~ 3500 kbps , 0.152 bit/pixel
Аудио: 48.0 kHz, AC3 Dolby Digital, 2/0 (L,R) ch, ~ 192 kbps
скриншот  скриншот  скриншот  скриншот  

Общее
Уникальный идентификатор : 196396581430797170033522913642823214199 (0x93C09B10282F622F8490AC359FD2E477)
Полное имя : C:\Taksistka.2020.HDTVRip.(720p).ExKinoRay\Taksistka.E01.2020.HDTVRip.(720p).ExKinoRay.mkv
Формат : Matroska
Версия формата : Version 2
Размер файла : 2,40 Гбайт
Продолжительность : 1 ч. 32 м.
Общий поток : 3694 Кбит/сек
Дата кодирования : UTC 2020-10-11 06:58:59
Программа кодирования : mkvmerge v7.8.0 ('River Man') 32bit built on Apr 3 2015 12:11:22
Библиотека кодирования : libebml v1.3.1 + libmatroska v1.4.2

Видео
Идентификатор : 1
Формат : AVC
Формат/Информация : Advanced Video Codec
Профиль формата : High@L4.1
Настройки формата : CABAC / 9 Ref Frames
Параметр CABAC формата : Да
Параметр RefFrames формата : 9 кадров
Идентификатор кодека : V_MPEG4/ISO/AVC
Продолжительность : 1 ч. 32 м.
Битрейт : 3500 Кбит/сек
Ширина : 1280 пикселей
Высота : 720 пикселей
Соотношение сторон : 16:9
Режим частоты кадров : Постоянный
Частота кадров : 25,000 кадров/сек
Цветовое пространство : YUV
Субдискретизация насыщенности : 4:2:0
Битовая глубина : 8 бит
Тип развёртки : Прогрессивная
Бит/(Пиксели*Кадры) : 0.152
Размер потока : 2,22 Гбайт (93%)
Библиотека кодирования : x264 core 146 r2538 121396c
Настройки программы : cabac=1 / ref=9 / deblock=1:-3:-3 / analyse=0x3:0x113 / me=umh / subme=11 / psy=1 / psy_rd=1.00:0.20 / mixed_ref=1 / me_range=32 / chroma_me=1 / trellis=2 / 8x8dct=1 / cqm=0 / deadzone=21,11 / fast_pskip=1 / chroma_qp_offset=-3 / threads=24 / lookahead_threads=10 / sliced_threads=0 / nr=0 / decimate=0 / interlaced=0 / bluray_compat=0 / constrained_intra=0 / bframes=10 / b_pyramid=2 / b_adapt=2 / b_bias=0 / direct=3 / weightb=1 / open_gop=0 / weightp=2 / keyint=250 / keyint_min=25 / scenecut=40 / intra_refresh=0 / rc_lookahead=60 / rc=2pass / mbtree=1 / bitrate=3500 / ratetol=1.0 / qcomp=0.60 / qpmin=0 / qpmax=69 / qpstep=4 / cplxblur=20.0 / qblur=0.5 / vbv_maxrate=14000 / vbv_bufsize=14000 / nal_hrd=none / filler=0 / ip_ratio=1.40 / aq=3:1.40
Default : Да
Forced : Нет
Цветовой диапазон : Limited
Основные цвета : BT.709
Характеристики трансфера : BT.709
Коэффициенты матрицы : BT.709

Аудио
Идентификатор : 2
Формат : AC-3
Формат/Информация : Audio Coding 3
Коммерческое название : Dolby Digital
Идентификатор кодека : A_AC3
Продолжительность : 1 ч. 32 м.
Вид битрейта : Постоянный
Битрейт : 192 Кбит/сек
Каналы : 2 канала
ChannelLayout : L R
Частота : 48,0 КГц
Частота кадров : 31,250 кадров/сек (1536 SPF)
Битовая глубина : 16 бит
Метод сжатия : С потерями
Размер потока : 128 Мбайт (5%)
ServiceKind/String : Complete Main
Default : Да
Forced : Нет

pb.wtf



Скачать Таксистка через торрент https://i111.fastpic.ru/big/2019/1207/b6/5c668dcd8d93fab26150b1f26fd74fb6.jpg Скачать фильм Таксистка через торрент бесплантно в хорошем качестве Описание: Красивая и успешная женщина по имени Наташа вдруг лишается практически всего: мужа Олега, уважения дочери Насти, карьеры, ... 10 10 2
Торрент: Зарегистрирован [2020-10-12 04:55] · скачан: 23 раз
Статус: √ проверено
Размер: 4.8 GB
Как cкачать? Как скачать Таксистка через торрент | qTorrent

% Раздел Тема Автор DL S | L
Наши сериалы [ 13.13 GB ] Таксистка / Серии: 1-4 из 4 [2019 Мело HDTV 1080i] bober100 Скачать
2 | 0

28-11-2019 20:33  

Отключить всю рекламу на сайте

    Дорогой пользователь! Огромная просьба, поблагодарите релизера, оцените раздачу и оставьте свои комментарий, если Вы скачали Таксистка через торрент бесплатно! Внесите свою лепту в развитие PiratBit!
    Комментировать посты могут только пользователи прошедшие не сложную регистрацию
    Показать сообщения:    

    Таксистка через торрент
    Скачать бесплатно Таксистка
    Таксистка скачать торрент
    Таксистка смотреть онлайн
    Cкачать фильм Таксистка бесплатно
    Таксистка скачать торрент в хорошем качестве
    Таксистка смотреть онлайн бесплатно в хорошем качестве


    Вы не можете начинать темы
    Вы не можете отвечать на сообщения
    Вы не можете редактировать свои сообщения
    Вы не можете удалять свои сообщения
    Вы не можете голосовать в опросах
    Вы не можете прикреплять файлы к сообщениям
    Вы можете скачивать файлы