2 сезон

iTunes

1 сезон

1

iTunes

iTunes

iTunes

1 сезон

RePack

30

ИГРА 18+

pack

ВАЖНО

!!Акция!!

Alien_RageХит недели

RePack

MK11
pack

Забери бонус

RePack

jed

!!Акция!!

Alien_Rage

RePack

fifa19

RePack

Assassins Creed: Odyssey

RePack

NEED FOR SPEED™ PAYBACK

4 сезон

9 сезон

Бесстыжие 9 сезон

Все сериалы

все сериалы на PB.wtf

RePack

FAR CRY 5
  

Мосгаз. Новое дело майора Черкасова. Катран / Серии: 1-8 из 8 (Сергей Коротаев) [2020, Детектив, криминал, триллер, SATRip] pb.wtf

Мосгаз. Новое дело майора Черкасова. Катран через торрент pb.wtf

Раздают: 22 [ 522 KB/s ] Качают: 6 [ 0 KB/s ]
Размер: 5.08 GB | Добавлен: 9 д. назад | Торрент скачан:112 раз
Скачать  

12-10-2020 11:37 Мосгаз. Новое дело майора Черкасова. Катран Скачать торрент  

Мосгаз. Новое дело майора Черкасова. Катран
Год выпуска: 2020
Страна: Россия
Выпущено: Красный квадрат, Студия Русский Проект
Жанр: Детектив, криминал, триллер
Продолжительность: ~ 00:49:00
Субтитры: отсутствуют

Режиссер: Сергей Коротаев



В ролях: Андрей Смоляков, Марина Александрова, Максим Аверин, Алёна Бабенко, Алексей Бардуков, Александр Голубев, Даниэла Стоянович, Евгения Крюкова, Екатерина Климова, Луиза Мосендз, Олег Морозов, Виктория Романенко, Сергей Сосновский, Лиза Медведева, Риналь Мухаметов, Татьяна Лялина, Полина Пушкарук, Сергей Угрюмов, Юрий Тарасов, Вадим Андреев, Владимир Юматов, Олег Штефанко, Александр Дробитько, Елизавета Зарубина, Денис Бургазлиев, Виталий Коваленко, Даниил Спиваковский, Леван Мсхиладзе, Линда Лапиньш, Анастасия Куимова

Описание: 1978 год. Группа Черкасова начинает новое расследование: на подмосковной даче убиты молодая игроманка Кира Миллер и ее любовник — полковник Потапенко. Выясняется, что незадолго до гибели Кира проиграла четыреста тысяч рублей в катране — подпольном казино. Чтобы узнать все обстоятельства дела майор Черкасов решает отправить в катран Соню Тимофееву. В казино Соня встречает Бориса (по прозвищу Музыкант), работающего там пианистом. У них начинается бурный роман. Но однажды, на глазах у Сони, Борис совершает преступление. Черкасов переживает за Соню, понимая, что она в опасности, ищет способ ее спасти…

Качество: SATRip
Формат: AVI

Видео: XviD, ~ 1650 Кбит/с, 720x400
Аудио: MP3, 2 ch, 192 Кбит/с
скриншот  скриншот  скриншот  скриншот  

Общее
Полное имя : C:\Mosgaz.Katran.2020.XviD.SATRip.25Kuzmich\Mosgaz.Katran.e01.XviD.SATRip.25Kuzmich.avi
Формат : AVI
Формат/Информация : Audio Video Interleave
Размер файла : 648 Мбайт
Продолжительность : 48 м. 53 с.
Общий поток : 1851 Кбит/сек
Программа кодирования : VirtualDubMod 1.5.10.3 (build 2550/release)
Библиотека кодирования : VirtualDubMod build 2550/release

Видео
Идентификатор : 0
Формат : MPEG-4 Visual
Профиль формата : Advanced Simple@L5
Настройки формата : BVOP1
Параметр BVOP формата : 1
Параметр QPel формата : Нет
Параметр GMC формата : Без точки перехода
Параметр матрицы формата : Default (MPEG)
Идентификатор кодека : XVID
Идентификатор кодека/Подсказка : XviD
Продолжительность : 48 м. 53 с.
Битрейт : 1650 Кбит/сек
Ширина : 720 пикселей
Высота : 400 пикселей
Соотношение сторон : 16:9
Частота кадров : 25,000 кадров/сек
Цветовое пространство : YUV
Субдискретизация насыщенности : 4:2:0
Битовая глубина : 8 бит
Тип развёртки : Прогрессивная
Метод сжатия : С потерями
Бит/(Пиксели*Кадры) : 0.219
Размер потока : 552 Мбайт (85%)
Библиотека кодирования : XviD 73

Аудио
Идентификатор : 1
Формат : MPEG Audio
Версия формата : Version 1
Профиль формата : Layer 3
Настройки формата : Joint stereo / MS Stereo
Идентификатор кодека : 55
Идентификатор кодека/Подсказка : MP3
Продолжительность : 48 м. 53 с.
Вид битрейта : Постоянный
Битрейт : 192 Кбит/сек
Каналы : 2 канала
Частота : 48,0 КГц
Частота кадров : 41,667 кадра/сек (1152 SPF)
Метод сжатия : С потерями
Размер потока : 67,2 Мбайт (10%)
Выравнивание : Соединение по промежуткам
Библиотека кодирования : LAME3.99r
Настройки программы : -m j -V 4 -q 2 -lowpass 18.6 -b 192

Внимание! Раздача ведётся путём добавления новых серий; при каждом добавлении создаётся новый торрент.
Чтобы начать докачку новой серии, пользователям необходимо сделать следующее:
1. Остановить скачивание;
2. Удалить старый торрент у себя из клиента (старые серии удалять не надо);
3. Скачать новый торрент и запустить его у себя в клиенте вместо старого, при этом указать клиенту путь в старую папку куда и должно происходить скачивание новых серий. Ваш клиент при этом должен произвести хеширование (проверку) старой папки и будет докачивать только те серии, которых у вас ещё нет. Старые серии при этом не удаляются, а продолжают раздаваться! Eсли вы уже удалили старые серии, то предотвратить повторную закачку старых серий можно, отжав галочку в соответствующих местах при запуске нового торрента.

pb.wtf



Скачать Мосгаз. Новое дело майора Черкасова. Катран через торрент https://img11.lostpic.net/2020/10/12/b6c5c45345377b5c0893d0eaeff5f90e.jpg Скачать фильм Мосгаз. Новое дело майора Черкасова. Катран через торрент бесплантно в хорошем качестве Описание: 1978 год. Группа Черкасова начинает новое расследование: на подмосковной даче убиты молодая игроманка Кира Миллер и ее любовник — ... 10 10 31
Info! Золотая раздача, скачанное не засчитывается.
Торрент: Зарегистрирован [2020-10-22 14:22] · скачан: 112 раз
Статус: √ проверено
Размер: 5.08 GB
Как cкачать? Как скачать Мосгаз. Новое дело майора Черкасова. Катран через торрент | qTorrent

% Раздел Тема Автор DL S | L
Наши сериалы [ 4.99 GB ] Мосгаз. Новое дело майора Черкасова. Катран / Серии: 1-8 из 8 [2020 WEB-DLRip-AVC] bober100 Скачать
4 | 3
Наши сериалы [ 7.67 GB ] Мосгаз. Новое дело майора Черкасова. Катран / Серии: 1-8 из 8 [2020 WEB-DL 720p] bober100 Скачать
10 | 2
Наши сериалы [ 5.01 GB ] Мосгаз. Новое дело майора Черкасова. Катран / Серии: 1-8 из 8 [2020 WEB-DLRip] bober100 Скачать
2 | 0
Наши сериалы [ 5.95 GB ] Мосгаз. Новое дело майора Черкасова. Катран / Серии: 1-8 из 8 [2020 HDTVRip-AVC] bober100 Скачать
13 | 3
Наши сериалы [ 10.02 GB ] Мосгаз. Новое дело майора Черкасова. Катран / Серии: 1-8 из 8 [2020 HDTVRip 720p] bober100 Скачать
10 | 0
Наши сериалы [ 15.16 GB ] Мосгаз. Новое дело майора Черкасова. Катран / Серии: 1-8 из 8 [2020 HDTV 1080i] bober100 Скачать
27 | 4
Наши сериалы [ 4.89 GB ] Мосгаз. Новое дело майора Черкасова. Катран / Серии: 1-8 из 8 [2020 HDTVRip] bober100 Скачать
8 | 2


Последний раз редактировалось: bober100 (2020-10-22 14:22), всего редактировалось 2 раз(а)

28-11-2019 20:33  

Отключить всю рекламу на сайте

20-10-2020 16:17 Мосгаз. Новое дело майора Черкасова. Катран Скачать торрент  

Ранее лучше было снять, мое мнение. много наивности здесь как мне показалосьpb.wtf



21-10-2020 15:46 Мосгаз. Новое дело майора Черкасова. Катран Скачать торрент  

не тот уже сериал. все хуже и хуже.pb.wtf



    Дорогой пользователь! Огромная просьба, поблагодарите релизера, оцените раздачу и оставьте свои комментарий, если Вы скачали Мосгаз. Новое дело майора Черкасова. Катран через торрент бесплатно! Внесите свою лепту в развитие PiratBit!
    Комментировать посты могут только пользователи прошедшие не сложную регистрацию
    Показать сообщения:    

    Мосгаз. Новое дело майора Черкасова. Катран через торрент
    Скачать бесплатно Мосгаз. Новое дело майора Черкасова. Катран
    Мосгаз. Новое дело майора Черкасова. Катран скачать торрент
    Мосгаз. Новое дело майора Черкасова. Катран смотреть онлайн
    Cкачать фильм Мосгаз. Новое дело майора Черкасова. Катран бесплатно
    Мосгаз. Новое дело майора Черкасова. Катран скачать торрент в хорошем качестве
    Мосгаз. Новое дело майора Черкасова. Катран смотреть онлайн бесплатно в хорошем качестве


    Вы не можете начинать темы
    Вы не можете отвечать на сообщения
    Вы не можете редактировать свои сообщения
    Вы не можете удалять свои сообщения
    Вы не можете голосовать в опросах
    Вы не можете прикреплять файлы к сообщениям
    Вы можете скачивать файлы