Ссылка на приватное зеркало нашего сайта всего за 1$. Внимание количество ограничено!!!

2 сезон

iTunes

1 сезон

1

2 сезон

2 сезон

iTunes

1 сезон

RePack

30

Ultimate

ВАЖНО

ИГРА 18+

pack

RePack

MK11
pack

Забери бонус

RePack

jed

!!Акция!!

Alien_Rage

RePack

fifa19

RePack

Assassins Creed: Odyssey

RePack

NEED FOR SPEED™ PAYBACK

4 сезон

9 сезон

Бесстыжие 9 сезон

Все сериалы

все сериалы на PB.wtf

RePack

FAR CRY 5
  

Хэллоуин Хьюби / Hubie Halloween (Стивен Брилл) [2020, Комедия, детектив, UHD WEB-DL 2160p, (SDR)] DUB [Пифагор / Netflix] pb.wtf

Хэллоуин Хьюби через торрент pb.wtf

Раздают: 2 [ 0 KB/s ]
Размер: 14.95 GB | Добавлен: 1 мес. 12 д. назад | Торрент скачан:60 раз
Скачать  

12-10-2020 13:22 Хэллоуин Хьюби Скачать торрент  

Хэллоуин Хьюби | Hubie Halloween
Год выпуска: 2020
Страна: США
Выпущено: Happy Madison Productions
Жанр: Комедия, детектив
Продолжительность: 01:43:58
Перевод: Дублированный | Пифагор по заказу Netflix
Субтитры: Русские (Forced, full), английские, французские

Режиссер: Стивен Брилл

rating

В ролях: Адам Сэндлер, Кевин Джеймс, Джули Боуэн, Майя Рудольф, Рэй Лиотта, Ноа Шнапп, Пейтон Лист, Келли Бёрглунд, Стив Бушеми, Пэрис Берелс, Чайна Энн Макклейн, Роб Шнайдер, Майкл Чиклис, Каран Брэр, Кенан Томпсон

Описание: Житель городка Салем Хьюби Дюбуа - добродушный парень и большой фанат Хэллоуина, а так же объект насмешек для взрослых и детей. Но когда на город обрушивается неизвестная угроза, которая может положить конец Дню всех святых, Хьюби становится единственным, кто может всех спасти.

Качество: UHD WEB-DL 2160p
Формат: MKV

Видео: 3840x1920 at 24.000 fps, MPEG-H HEVC SDR Video, 18500 kbps avg
Аудио #01: 48 kHz, E-AC3, 5.1, 640 Kbps | iTunes | RUS |
Аудио #02: 48 kHz, AC3, 5.1, 640 Kbps | iTunes | RUS |
Аудио #03: 48 kHz, E-AC3+Atmos, 5.1, 768 Kbps | Оригинал | ENG |
скриншот  скриншот  скриншот  скриншот  скриншот  

Общее
Уникальный идентификатор : 97993674721758991621734638849824266200 (0x49B8E52F26AABF19F21495A4BAEE17D8)
Полное имя : C:\Hubie.Halloween.2020.NF.WEB-DL.2160p.SDR.seleZen.mkv
Формат : Matroska
Версия формата : Version 4
Размер файла : 14,9 Гбайт
Продолжительность : 1 ч. 43 м.
Общий поток : 20,6 Мбит/сек
Название фильма : Hubie Halloween 2020 from селезень
Дата кодирования : UTC 2020-10-12 12:04:28
Программа кодирования : mkvmerge v40.0.0 ('Old Town Road + Pony') 64-bit
Библиотека кодирования : libebml v1.3.9 + libmatroska v1.5.2

Видео
Идентификатор : 1
Формат : HEVC
Формат/Информация : High Efficiency Video Coding
Профиль формата : Main 10@L5.1@High
Идентификатор кодека : V_MPEGH/ISO/HEVC
Продолжительность : 1 ч. 43 м.
Битрейт : 18,5 Мбит/сек
Ширина : 3840 пикселей
Высота : 1920 пикселей
Соотношение сторон : 2,000
Режим частоты кадров : Постоянный
Частота кадров : 24,000 кадра/сек
Цветовое пространство : YUV
Субдискретизация насыщенности : 4:2:0
Битовая глубина : 10 бит
Бит/(Пиксели*Кадры) : 0.105
Размер потока : 13,5 Гбайт (90%)
Библиотека кодирования : x265 3.4+26-ga82c6c7a7:[Windows][GCC 10.2.1][64 bit] 10bit
Настройки программы : cpuid=1111039 / frame-threads=3 / numa-pools=12 / wpp / no-pmode / no-pme / no-psnr / no-ssim / log-level=2 / input-csp=1 / input-res=3840x1920 / interlace=0 / total-frames=149727 / level-idc=51 / high-tier=1 / uhd-bd=0 / ref=5 / no-allow-non-conformance / repeat-headers / annexb / aud / hrd / info / hash=0 / no-temporal-layers / open-gop / min-keyint=24 / keyint=250 / gop-lookahead=0 / bframes=8 / b-adapt=2 / b-pyramid / bframe-bias=0 / rc-lookahead=40 / lookahead-slices=8 / scenecut=40 / hist-scenecut=0 / radl=0 / no-splice / no-intra-refresh / ctu=64 / min-cu-size=8 / no-rect / no-amp / max-tu-size=32 / tu-inter-depth=4 / tu-intra-depth=4 / limit-tu=4 / rdoq-level=0 / dynamic-rd=0.00 / no-ssim-rd / signhide / no-tskip / nr-intra=0 / nr-inter=0 / no-constrained-intra / strong-intra-smoothing / max-merge=4 / limit-refs=1 / no-limit-modes / me=1 / subme=5 / merange=57 / temporal-mvp / no-frame-dup / no-hme / weightp / weightb / no-analyze-src-pics / deblock=-3:-3 / no-sao / no-sao-non-deblock / rd=4 / selective-sao=0 / early-skip / rskip / no-fast-intra / no-tskip-fast / no-cu-lossless / b-intra / no-splitrd-skip / rdpenalty=0 / psy-rd=2.00 / psy-rdoq=0.00 / no-rd-refine / no-lossless / cbqpoffs=0 / crqpoffs=0 / rc=crf / crf=19.0 / qcomp=0.60 / qpstep=4 / stats-write=0 / stats-read=0 / vbv-maxrate=160000 / vbv-bufsize=160000 / vbv-init=0.9 / min-vbv-fullness=50.0 / max-vbv-fullness=80.0 / crf-max=0.0 / crf-min=0.0 / ipratio=1.30 / pbratio=1.20 / aq-mode=1 / aq-strength=0.80 / no-cutree / zone-count=0 / no-strict-cbr / qg-size=32 / no-rc-grain / qpmax=69 / qpmin=0 / no-const-vbv / sar=1 / overscan=0 / videoformat=5 / range=0 / colorprim=1 / transfer=1 / colormatrix=1 / chromaloc=0 / display-window=0 / cll=0,0 / min-luma=0 / max-luma=1023 / log2-max-poc-lsb=8 / vui-timing-info / vui-hrd-info / slices=1 / no-opt-qp-pps / no-opt-ref-list-length-pps / no-multi-pass-opt-rps / scenecut-bias=0.05 / hist-threshold=0.03 / no-opt-cu-delta-qp / no-aq-motion / no-hdr10 / no-hdr10-opt / no-dhdr10-opt / no-idr-recovery-sei / analysis-reuse-level=0 / analysis-save-reuse-level=0 / analysis-load-reuse-level=0 / scale-factor=0 / refine-intra=0 / refine-inter=0 / refine-mv=1 / refine-ctu-distortion=0 / no-limit-sao / ctu-info=0 / no-lowpass-dct / refine-analysis-type=0 / copy-pic=1 / max-ausize-factor=1.0 / no-dynamic-refine / no-single-sei / no-hevc-aq / no-svt / no-field / qp-adaptation-range=1.00 / no-scenecut-aware-qpconformance-window-offsets / right=0 / bottom=0 / decoder-max-rate=0 / no-vbv-live-multi-pass
Язык : English
Default : Да
Forced : Нет
Цветовой диапазон : Limited
Основные цвета : BT.709
Характеристики трансфера : BT.709
Коэффициенты матрицы : BT.709

Аудио #1
Идентификатор : 2
Формат : E-AC-3
Формат/Информация : Enhanced AC-3
Коммерческое название : Dolby Digital Plus
Идентификатор кодека : A_EAC3
Продолжительность : 1 ч. 43 м.
Вид битрейта : Постоянный
Битрейт : 640 Кбит/сек
Каналы : 6 каналов
ChannelLayout : L R C LFE Ls Rs
Частота : 48,0 КГц
Частота кадров : 31,250 кадров/сек (1536 SPF)
Метод сжатия : С потерями
Размер потока : 476 Мбайт (3%)
Заголовок : Dub
Язык : Russian
ServiceKind/String : Complete Main
Default : Да
Forced : Да

Аудио #2
Идентификатор : 3
Формат : AC-3
Формат/Информация : Audio Coding 3
Коммерческое название : Dolby Digital
Идентификатор кодека : A_AC3
Продолжительность : 1 ч. 43 м.
Вид битрейта : Постоянный
Битрейт : 640 Кбит/сек
Каналы : 6 каналов
ChannelLayout : L R C LFE Ls Rs
Частота : 48,0 КГц
Частота кадров : 31,250 кадров/сек (1536 SPF)
Битовая глубина : 16 бит
Метод сжатия : С потерями
Размер потока : 476 Мбайт (3%)
Заголовок : Dub
Язык : Russian
ServiceKind/String : Complete Main
Default : Нет
Forced : Нет

Аудио #3
Идентификатор : 4
Формат : E-AC-3 JOC
Формат/Информация : Enhanced AC-3 with Joint Object Coding
Коммерческое название : Dolby Digital Plus with Dolby Atmos
Идентификатор кодека : A_EAC3
Продолжительность : 1 ч. 43 м.
Вид битрейта : Постоянный
Битрейт : 768 Кбит/сек
Каналы : 6 каналов
ChannelLayout : L R C LFE Ls Rs
Частота : 48,0 КГц
Частота кадров : 31,250 кадров/сек (1536 SPF)
Метод сжатия : С потерями
Размер потока : 571 Мбайт (4%)
Заголовок : Original
Язык : English
ServiceKind/String : Complete Main
Default : Нет
Forced : Нет
ComplexityIndex : 16
NumberOfDynamicObjects : 15
BedChannelCount/String : 1 канал
BedChannelConfiguration : LFE

Текст #1
Идентификатор : 5
Формат : UTF-8
Идентификатор кодека : S_TEXT/UTF8
Идентификатор кодека/Информация : UTF-8 Plain Text
Продолжительность : 1 ч. 41 м.
Битрейт : 3 бит/сек
ElementCount : 49
Размер потока : 2,41 Кбайт (0%)
Заголовок : Forced
Язык : Russian
Default : Да
Forced : Да

Текст #2
Идентификатор : 6
Формат : UTF-8
Идентификатор кодека : S_TEXT/UTF8
Идентификатор кодека/Информация : UTF-8 Plain Text
Продолжительность : 1 ч. 41 м.
Битрейт : 109 бит/сек
ElementCount : 1472
Размер потока : 81,3 Кбайт (0%)
Заголовок : Full
Язык : Russian
Default : Нет
Forced : Нет

Текст #3
Идентификатор : 7
Формат : UTF-8
Идентификатор кодека : S_TEXT/UTF8
Идентификатор кодека/Информация : UTF-8 Plain Text
Продолжительность : 1 ч. 39 м.
Битрейт : 93 бит/сек
ElementCount : 2058
Размер потока : 68,0 Кбайт (0%)
Заголовок : English [SDH]
Язык : English
Default : Нет
Forced : Нет

Текст #4
Идентификатор : 8
Формат : UTF-8
Идентификатор кодека : S_TEXT/UTF8
Идентификатор кодека/Информация : UTF-8 Plain Text
Продолжительность : 1 ч. 41 м.
Битрейт : 72 бит/сек
ElementCount : 1575
Размер потока : 53,7 Кбайт (0%)
Заголовок : French
Язык : French
Default : Нет
Forced : Нет

pb.wtf



Скачать Хэллоуин Хьюби через торрент https://i114.fastpic.ru/big/2020/1007/2b/49e86cd3a05f173abf6d584a06489c2b.jpg Скачать фильм Хэллоуин Хьюби через торрент бесплантно в хорошем качестве Описание: Житель городка Салем Хьюби Дюбуа - добродушный парень и большой фанат Хэллоуина, а так же объект насмешек для взрослых и детей. ... 9.8 10 5
Торрент: Зарегистрирован [2020-10-12 13:22] · скачан: 60 раз
Статус: √ проверено
Размер: 14.95 GB
Как cкачать? Как скачать Хэллоуин Хьюби через торрент | qTorrent

% Раздел Тема Автор DL S | L
Фильмы (WEB-DL 720p, 1080p) [ 5.25 GB ] Хэллоуин Хьюби / Hubie Halloween [2020 WEB-DL-HEVC 1080p] DUB [Пифагор / Netflix] bober100 Скачать
2 | 0
Фильмы (WEB-DL 720p, 1080p) [ 5.84 GB ] Хэллоуин Хьюби / Hubie Halloween [2020 WEB-DL 1080p] DUB [Пифагор / Netflix] bober100 Скачать
3 | 0
Фильмы 2019-2020 [DVDrip, WEB-DLRip, HDrip] (DUB, MVO) [ 1.44 GB ] Хэллоуин Хьюби / Hubie Halloween [2020 WEB-DLRip-AVC] DUB [Пифагор / Netflix] bober100 Скачать
4 | 0
Фильмы 2019-2020 [DVDrip, WEB-DLRip, HDrip] (DUB, MVO) [ 1.46 GB ] Хэллоуин Хьюби / Hubie Halloween [2020 WEB-DLRip] DUB [Пифагор / Netflix] bober100 Скачать
5 | 0
Фильмы (WEB-DL 720p, 1080p) [ 3.78 GB ] Хэллоуин Хьюби / Hubie Halloween [2020 WEB-DL 720p] DUB [Пифагор / Netflix] bober100 Скачать
17 | 0


Последний раз редактировалось: bober100 (2020-10-22 06:58), всего редактировалось 2 раз(а)

28-11-2019 20:33  

Отключить всю рекламу на сайте

12-10-2020 13:31 Хэллоуин Хьюби Скачать торрент  

bober100, Рейтинг исправь, что то зашкаливаетpb.wtf



    Дорогой пользователь! Огромная просьба, поблагодарите релизера, оцените раздачу и оставьте свои комментарий, если Вы скачали Хэллоуин Хьюби через торрент бесплатно! Внесите свою лепту в развитие PiratBit!
    Комментировать посты могут только пользователи прошедшие не сложную регистрацию
    Показать сообщения:    

    Хэллоуин Хьюби через торрент
    Скачать бесплатно Хэллоуин Хьюби
    Хэллоуин Хьюби скачать торрент
    Хэллоуин Хьюби смотреть онлайн
    Cкачать фильм Хэллоуин Хьюби бесплатно
    Хэллоуин Хьюби скачать торрент в хорошем качестве
    Хэллоуин Хьюби смотреть онлайн бесплатно в хорошем качестве


    Вы не можете начинать темы
    Вы не можете отвечать на сообщения
    Вы не можете редактировать свои сообщения
    Вы не можете удалять свои сообщения
    Вы не можете голосовать в опросах
    Вы не можете прикреплять файлы к сообщениям
    Вы можете скачивать файлы