Ссылка на приватное зеркало нашего сайта всего за 1$. Внимание количество ограничено!!!

2 сезон

iTunes

1 сезон

1

iTunes

iTunes

iTunes

1 сезон

RePack

30

ИГРА 18+

pack

ВАЖНО

!!Акция!!

Alien_RageХит недели

RePack

MK11
pack

Забери бонус

RePack

jed

!!Акция!!

Alien_Rage

RePack

fifa19

RePack

Assassins Creed: Odyssey

RePack

NEED FOR SPEED™ PAYBACK

4 сезон

9 сезон

Бесстыжие 9 сезон

Все сериалы

все сериалы на PB.wtf

RePack

FAR CRY 5
  

Трудные подростки / Сезон: 2 / Серии: 1-4 из 8 (Рустам Ильясов) [2020, Драма, комедия, спорт, WEBRip] pb.wtf

Трудные подростки через торрент pb.wtf

Раздают: 7 [ 154 KB/s ] Качают: 4 [ 0 KB/s ]
Размер: 1.17 GB | Добавлен: 6 ч. назад | Торрент скачан:5 раз
Скачать  

12-10-2020 15:10 Трудные подростки Скачать торрент  

Трудные подростки 2
Год выпуска: 2020
Страна: Россия
Жанр: Драма, комедия, спорт
Продолжительность: ~ 00:25:00 серия
Субтитры: отсутствуют

Режиссер: Рустам Ильясов



В ролях: Никита Волков, Наталья Бардо, Виталий Андреев, Анастасия Крылова, Тимофей Елецкий, Григорий Калинин, Вильма Кутавичюте, Глеб Калюжный, Алёна Швиденкова, Владимир Гарцунов, Святослав Рогожан, Мила Ершова, Сергей Новосад, Евгений Савин (III), Сергей Комаров (II), Александр Лыков

Описание: Опальный спортсмен Антон Ковалев возвращается к трудным подросткам. Оказавшись в центре скандала с оружием и едва не угодив в тюрьму второй раз, он решил больше не связываться с юными преступниками. Но репутация сама себя не исправит, а других возможностей проявить свой тренерский талант у него нет. Теперь Ковалев пытается сделать из несовершеннолетних уголовников футбольную команду и выиграть с ними городской турнир. За раскрутку его карьеры берется сексапильный менеджер, что совсем не радует Веронику.

Качество: WEBRip
Формат: AVI

Видео: 720x400 (1.80:1), 25 fps, XviD ~1400 kbps avg, 0.193 bit/pixel
Аудио: AC3 Dolby Digital, 48.0 kHz, 2/0 (L,R) ch, 192 kbps
скриншот  скриншот  скриншот  скриншот  скриншот  

General
Complete name : D:\Trudnye.podrostki.S02.WEB-DLRip.25Kuzmich\Trudnye.podrostki.s02.e01.WEB-DLRip.25Kuzmich.avi
Format : AVI
Format/Info : Audio Video Interleave
File size : 300 MiB
Duration : 26 min 17 s
Overall bit rate : 1 594 kb/s
Writing application : VirtualDubMod 1.5.10.3 | www.virtualdub-fr.org || (build 2550/release)
Writing library : VirtualDubMod build 2550/release

Video
ID : 0
Format : MPEG-4 Visual
Format profile : Advanced Simple@L5
Format settings : BVOP1
Format settings, BVOP : 1
Format settings, QPel : No
Format settings, GMC : No warppoints
Format settings, Matrix : Default (MPEG)
Codec ID : XVID
Codec ID/Hint : XviD
Duration : 26 min 17 s
Bit rate : 1 392 kb/s
Width : 720 pixels
Height : 400 pixels
Display aspect ratio : 16:9
Frame rate : 25.000 FPS
Color space : YUV
Chroma subsampling : 4:2:0
Bit depth : 8 bits
Scan type : Progressive
Compression mode : Lossy
Bits/(Pixel*Frame) : 0.193
Stream size : 262 MiB (87%)
Writing library : XviD 73

Audio
ID : 1
Format : AC-3
Format/Info : Audio Coding 3
Codec ID : 2000
Duration : 26 min 16 s
Bit rate mode : Constant
Bit rate : 192 kb/s
Channel(s) : 2 channels
Channel positions : Front: L R
Sampling rate : 48.0 kHz
Frame rate : 31.250 FPS (1536 SPF)
Bit depth : 16 bits
Compression mode : Lossy
Stream size : 36.1 MiB (12%)
Alignment : Split accross interleaves
Interleave, duration : 40 ms (1.00 video frame)
Interleave, preload duratio : 500 ms
Service kind : Complete Main

Внимание! Раздача ведётся путём добавления новых серий; при каждом добавлении создfётся новый торрент. Чтобы начать докачку новой серии, пользователям необходимо сделать следующее: (1) остановить скачивание, (2) удалить старый торрент у себя из клиента (старые серии удалять не надо), (3) скачать новый торрент и запустить его у себя в клиенте вместо старого, при этом указать клиенту путь в старую папку куда и должно происходить скачивание новых серий.

Ваш клиент при этом должен произвести хеширование (проверку) старой папки (если не производит сам - помогите ему сделать это), и будет докачивать только те серии которых у вас ещё нет. Старые серии при этом не удаляются, а продолжают раздаваться!

Eсли вы уже удалили старые серии, то предотвратить повторную закачку старых серий можно, отжав галочку в соответсвующих местах при запуске нового торрента.
pb.wtf



Скачать Трудные подростки через торрент https://img11.lostpic.net/2020/10/05/45977f703b0250de8f39f554408a5dbd.jpg Скачать фильм Трудные подростки через торрент бесплантно в хорошем качестве Описание: Опальный спортсмен Антон Ковалев возвращается к трудным подросткам. Оказавшись в центре скандала с оружием и едва не угодив в ... 10 10 4
Торрент: Зарегистрирован [2020-10-26 15:18] · скачан: 5 раз
Статус: √ проверено
Размер: 1.17 GB
Как cкачать? Как скачать Трудные подростки через торрент | qTorrent

% Раздел Тема Автор DL S | L
Наши сериалы [ 1.25 GB ] Трудные подростки / Сезон: 2 / Серии: 1-4 из 8 [2020 WEBRip-AVC] bober100 Скачать
2 | 2
Наши сериалы [ 2.56 GB ] Трудные подростки / Сезон: 2 / Серии: 1-4 из 8 [2020 WEBRip 1080p] bober100 Скачать
10 | 7

28-11-2019 20:33  

Отключить всю рекламу на сайте

    Дорогой пользователь! Огромная просьба, поблагодарите релизера, оцените раздачу и оставьте свои комментарий, если Вы скачали Трудные подростки через торрент бесплатно! Внесите свою лепту в развитие PiratBit!
    Комментировать посты могут только пользователи прошедшие не сложную регистрацию
    Показать сообщения:    

    Трудные подростки через торрент
    Скачать бесплатно Трудные подростки
    Трудные подростки скачать торрент
    Трудные подростки смотреть онлайн
    Cкачать фильм Трудные подростки бесплатно
    Трудные подростки скачать торрент в хорошем качестве
    Трудные подростки смотреть онлайн бесплатно в хорошем качестве


    Вы не можете начинать темы
    Вы не можете отвечать на сообщения
    Вы не можете редактировать свои сообщения
    Вы не можете удалять свои сообщения
    Вы не можете голосовать в опросах
    Вы не можете прикреплять файлы к сообщениям
    Вы можете скачивать файлы