Ссылка на приватное зеркало нашего сайта всего за 1$. Внимание количество ограничено!!!

2 сезон

iTunes

1 сезон

1

iTunes

iTunes

iTunes

1 сезон

RePack

30

ИГРА 18+

pack

ВАЖНО

!!Акция!!

Alien_RageХит недели

RePack

MK11
pack

Забери бонус

RePack

jed

!!Акция!!

Alien_Rage

RePack

fifa19

RePack

Assassins Creed: Odyssey

RePack

NEED FOR SPEED™ PAYBACK

4 сезон

9 сезон

Бесстыжие 9 сезон

Все сериалы

все сериалы на PB.wtf

RePack

FAR CRY 5
  

Булатов / Сезон: 1 / Серии: 1-16 из 16 (Максим Мельник) [2020, Детектив, криминал, WEBRip 1080p] pb.wtf

Булатов через торрент pb.wtf

Размер: 38.27 GB | Добавлен: 7 д. назад | Торрент скачан:8 раз
Скачать  

13-10-2020 07:11 Булатов Скачать торрент  

Булатов
Год выпуска: 2020
Страна: Украина
Выпущено: Sisters production
Жанр: Детектив, криминал
Продолжительность: ~ 00:46:47
Перевод: Не требуется
Субтитры: отсутствуют

Режиссер: Максим Мельник

В ролях: Михаил Евланов, Дмитрий Ендальцев, Дарина Полунина, Вячеслав Гиндин, Игорь Салимонов, Александр Данильченко.

Описание: Остросюжетный детектив про брутального, жесткого, но в то же время харизматичного и опытного оперативника Егора Булатова, который пытается любой ценой поймать "оборотня в погонах", виновного в смерти его друга-напарника. Ради этой цели он устраивается в Службу внутренней безопасности и с рвением берется за расследования, раскрывая запутанные и изощренные схемы не чистых на руку полицейских.

Качество: WEBRip 1080p
Формат: MKV

Видео: MPEG-4 AVC, ~ 7644 Кбит/с, 1920x1080, 25 кадр/с
Аудио: 48.0 kHz, AC3 Dolby Digital, 2/0 (L,R) ch, ~ 192 kbps
скриншот  скриншот  скриншот  скриншот  скриншот  

General
Unique ID : 188734252319355754417876859650638114128 (0x8DFCE51217FE608A88D2A910924C6D50)
Complete name : H:\fiiles x\Булатов .2020.WEB-DL 1080p.Files-x\01. Булатов .2020.WEB-DL 1080p.Files-x.mkv
Format : Matroska
File size : 2.61 GiB
Duration : 46mn 47s
Overall bit rate : 7 995 Kbps
Encoded date : UTC 2020-09-24 08:41:39
Writing application : mkvmerge v7.8.0 ('River Man') 32bit built on Apr 3 2015 12:11:22
Writing library : libebml v1.3.1 + libmatroska v1.4.2

Video
ID : 1
Format : AVC
Format/Info : Advanced Video Codec
Format profile : High@L4.1
Format settings, CABAC : Yes
Format settings, ReFrames : 6 frames
Codec ID : V_MPEG4/ISO/AVC
Duration : 46mn 47s
Bit rate mode : Variable
Bit rate : 7 644 Kbps
Maximum bit rate : 40.0 Mbps
Width : 1 920 pixels
Height : 1 080 pixels
Display aspect ratio : 16:9
Frame rate : 25.000 fps
Color space : YUV
Chroma subsampling : 4:2:0
Bit depth : 8 bits
Scan type : Progressive
Bits/(Pixel*Frame) : 0.147
Stream size : 2.50 GiB (96%)

Audio
ID : 2
Format : AC-3
Format/Info : Audio Coding 3
Mode extension : CM (complete main)
Codec ID : A_AC3
Duration : 46mn 47s
Bit rate mode : Constant
Bit rate : 192 Kbps
Channel(s) : 2 channels
Channel positions : Front: L R
Sampling rate : 48.0 KHz
Bit depth : 16 bits
Compression mode : Lossy
Stream size : 64.3 MiB (2%)

pb.wtf



Скачать Булатов через торрент https://i112.fastpic.ru/big/2020/0924/34/0aa8bfd9cd93fd90ddd76b0af14f4b34.jpg Скачать фильм Булатов через торрент бесплантно в хорошем качестве Описание: Остросюжетный детектив про брутального, жесткого, но в то же время харизматичного и опытного оперативника Егора Булатова, который ... 10 10 3
Торрент: Зарегистрирован [2020-10-13 07:11] · скачан: 8 раз
Статус: √ проверено
Размер: 38.27 GB
Как cкачать? Как скачать Булатов через торрент | qTorrent

% Раздел Тема Автор DL S | L
Наши сериалы [ 8.55 GB ] Булатов / Сезон: 1 / Серии: 1-16 из 16 [2020 WEBRip-AVC] bober100 Скачать
5 | 1

28-11-2019 20:33  

Отключить всю рекламу на сайте

    Дорогой пользователь! Огромная просьба, поблагодарите релизера, оцените раздачу и оставьте свои комментарий, если Вы скачали Булатов через торрент бесплатно! Внесите свою лепту в развитие PiratBit!
    Комментировать посты могут только пользователи прошедшие не сложную регистрацию
    Показать сообщения:    

    Булатов через торрент
    Скачать бесплатно Булатов
    Булатов скачать торрент
    Булатов смотреть онлайн
    Cкачать фильм Булатов бесплатно
    Булатов скачать торрент в хорошем качестве
    Булатов смотреть онлайн бесплатно в хорошем качестве


    Вы не можете начинать темы
    Вы не можете отвечать на сообщения
    Вы не можете редактировать свои сообщения
    Вы не можете удалять свои сообщения
    Вы не можете голосовать в опросах
    Вы не можете прикреплять файлы к сообщениям
    Вы можете скачивать файлы