Ссылка на приватное зеркало нашего сайта всего за 1$. Внимание количество ограничено!!!

2 сезон

iTunes

1 сезон

1

iTunes

iTunes

iTunes

1 сезон

RePack

30

ИГРА 18+

pack

ВАЖНО

!!Акция!!

Alien_RageХит недели

RePack

MK11
pack

Забери бонус

RePack

jed

!!Акция!!

Alien_Rage

RePack

fifa19

RePack

Assassins Creed: Odyssey

RePack

NEED FOR SPEED™ PAYBACK

4 сезон

9 сезон

Бесстыжие 9 сезон

Все сериалы

все сериалы на PB.wtf

RePack

FAR CRY 5
  

Обманутые надежды / Серии: 1-4 из 4 (Валентин Донсков) [2019, Мелодрама, WEB-DL 720p] pb.wtf

Обманутые надежды через торрент pb.wtf

Раздают: 1 [ 15 KB/s ]
Размер: 2.99 GB | Добавлен: 15 д. назад | Торрент скачан:5 раз
Скачать  

13-10-2020 16:42 Обманутые надежды Скачать торрент  

Обманутые надежды
Год выпуска: 2019
Страна: Россия
Выпущено: Производство ООО Компания "Феникс-Фильм" по заказу АО "Новый канал"
Жанр: Мелодрама
Продолжительность: ~ 00:50:00
Субтитры: отсутствуют

Режиссер: Валентин Донсков

В ролях: Юлия Шиферштейн, Андрей Фролов (II), Юрий Батурин, Светлана Чернова, Татьяна Ташкова, Евгений Данчевский, Дарья Лузина, Альбина Кубрикова, Геннадий Семёнов

Описание: Жизнь главной героини бизнес-леди Лизы напоминает картинку из модного журнала: счастливая семья, заботливый муж, двое чудесных детей, роскошный особняк и успешное дело – сеть салонов мебели. Лиза всего добилась сама – талантом, терпением и трудолюбием, и вполне заслужила свое счастье, но… оно оказалось всего лишь иллюзией. Ее муж - амбициозный и самолюбивый Герман втайне завидует успеху жены и ревнует ее к бизнесу...

Качество: WEB-DL 720p
Формат: MKV

Видео: MPEG-4 AVC, ~ 1956 Кбит/с, 1280x720, 25 кадр/с
Аудио: 48.0 kHz, AC3 Dolby Digital, 2/0 (L,R) ch, ~ 192 kbps
скриншот  скриншот  скриншот  скриншот  скриншот  

General
Unique ID : 245340641456950781058540332430528668106 (0xB892E3881DA148818474F04AA710E1CA)
Complete name : H:\fiiles x\Обманутые надежды.2020.WEB-DL 720p.Files-x\02. Обманутые надежды.2020.WEB-DL 720p.Files-x.mkv
Format : Matroska
File size : 742 MiB
Duration : 47mn 23s
Overall bit rate : 2 190 Kbps
Encoded date : UTC 2020-10-13 14:04:01
Writing application : mkvmerge v7.8.0 ('River Man') 32bit built on Apr 3 2015 12:11:22
Writing library : libebml v1.3.1 + libmatroska v1.4.2

Video
ID : 1
Format : AVC
Format/Info : Advanced Video Codec
Format profile : High@L4.1
Format settings, CABAC : Yes
Format settings, ReFrames : 5 frames
Codec ID : V_MPEG4/ISO/AVC
Duration : 47mn 23s
Bit rate : 1 955 Kbps
Width : 1 280 pixels
Height : 720 pixels
Display aspect ratio : 16:9
Frame rate : 25.000 fps
Standard : PAL
Color space : YUV
Chroma subsampling : 4:2:0
Bit depth : 8 bits
Scan type : Progressive
Bits/(Pixel*Frame) : 0.085
Stream size : 663 MiB (89%)
Color primaries : BT.709-5, BT.1361, IEC 61966-2-4, SMPTE RP177
Transfer characteristics : BT.709-5, BT.1361
Matrix coefficients : BT.709-5, BT.1361, IEC 61966-2-4 709, SMPTE RP177

Audio
ID : 2
Format : AC-3
Format/Info : Audio Coding 3
Mode extension : CM (complete main)
Codec ID : A_AC3
Duration : 47mn 23s
Bit rate mode : Constant
Bit rate : 192 Kbps
Channel(s) : 2 channels
Channel positions : Front: L R
Sampling rate : 48.0 KHz
Bit depth : 16 bits
Compression mode : Lossy
Stream size : 65.1 MiB (9%)

pb.wtf



Скачать Обманутые надежды через торрент https://i114.fastpic.ru/big/2020/1013/be/9f503116bae80b20e8a2ac917cdb2abe.jpg Скачать фильм Обманутые надежды через торрент бесплантно в хорошем качестве Описание: Жизнь главной героини бизнес-леди Лизы напоминает картинку из модного журнала: счастливая семья, заботливый муж, двое чудесных ... 10 10 2
Торрент: Зарегистрирован [2020-10-13 16:42] · скачан: 5 раз
Статус: √ проверено
Размер: 2.99 GB
Как cкачать? Как скачать Обманутые надежды через торрент | qTorrent

% Раздел Тема Автор DL S | L
Наши сериалы [ 2.45 GB ] Обманутые надежды / Серии: 1-4 из 4 [2019 Мело WEB-DLRip-AVC] bober100 Скачать
1 | 0
Наши сериалы [ 5.04 GB ] Обманутые надежды / Серии: 1-4 из 4 [2019 Мело WEB-DL 1080p] bober100 Скачать
1 | 0
Наши сериалы [ 2.47 GB ] Обманутые надежды / Серии: 1-4 из 4 [2019 Мело WEB-DLRip] bober100 Скачать
1 | 0

28-11-2019 20:33  

Отключить всю рекламу на сайте

    Дорогой пользователь! Огромная просьба, поблагодарите релизера, оцените раздачу и оставьте свои комментарий, если Вы скачали Обманутые надежды через торрент бесплатно! Внесите свою лепту в развитие PiratBit!
    Комментировать посты могут только пользователи прошедшие не сложную регистрацию
    Показать сообщения:    

    Обманутые надежды через торрент
    Скачать бесплатно Обманутые надежды
    Обманутые надежды скачать торрент
    Обманутые надежды смотреть онлайн
    Cкачать фильм Обманутые надежды бесплатно
    Обманутые надежды скачать торрент в хорошем качестве
    Обманутые надежды смотреть онлайн бесплатно в хорошем качестве


    Вы не можете начинать темы
    Вы не можете отвечать на сообщения
    Вы не можете редактировать свои сообщения
    Вы не можете удалять свои сообщения
    Вы не можете голосовать в опросах
    Вы не можете прикреплять файлы к сообщениям
    Вы можете скачивать файлы