Ссылка на приватное зеркало нашего сайта всего за 1$. Внимание количество ограничено!!!

2 сезон

iTunes

1 сезон

1

iTunes

iTunes

iTunes

1 сезон

RePack

30

ИГРА 18+

pack

ВАЖНО

!!Акция!!

Alien_RageХит недели

RePack

MK11
pack

Забери бонус

RePack

jed

!!Акция!!

Alien_Rage

RePack

fifa19

RePack

Assassins Creed: Odyssey

RePack

NEED FOR SPEED™ PAYBACK

4 сезон

9 сезон

Бесстыжие 9 сезон

Все сериалы

все сериалы на PB.wtf

RePack

FAR CRY 5
  

Одинокий волк (1-24 серии из 24) (Александр Кулямин) [2012 г., Боевик, криминал, детектив, SATRip-AVC Оригинал] pb.wtf

Одинокий волк через торрент pb.wtf

Качают: 1 [ 0 KB/s ]
Размер: 13.06 GB | Добавлен: 9 д. назад | Торрент скачан:26 раз
Скачать  

13-10-2020 17:20 Одинокий волк Скачать торрент  

Одинокий волк
Год выпуска: 2012
Страна: Россия
Жанр: Боевик, криминал, детектив
Продолжительность: 24 x ~ 00:44:00
Перевод: Оригинал
Субтитры: нет

Режиссер: Александр Кулямин

В ролях: Максим Щёголев, Геннадий Шныптев, Дмитрий Митюрич, Владимир Лысенко, Иннокентий Тарабара, Алёна Олькина, Карина Реука, Бесо Гатаев, Виктор Балабанов, Анна Потапова, Надежда Бахтина, Валерий Николаев, Игорь Верник, Алексей Секирин, Максим Дрозд, Евдокия Чумакова, Анна Кузьмина, Ольга Житник, Антон Торопов, Виктория Куликова

Описание: Трудно жить с человеком, у которого чрезвычайно сложный характер, которого никто не может сломать и ущемить, который ни перед кем не гнется и не идет даже на самые небольшие уступки. В народе подобных людей называют волками. Однако, как часто случается, в их жизни нет никого, поскольку они - одинокие волки. Это история о сильном, мужественном и временами сложном характере.

Качество: SATRip-AVC
Формат: MKV
Видео кодек: AVC
Аудио кодек: AC3
Видео: MPEG-4 AVC, (768x432),1600 Кбит/с, 25.000 кадра/сек
Аудио#1: AC3, 2 ch, 192 kbps (Rus) 48.0 KHz Оригинал
скриншот   скриншот   скриншот  

Название: Одинокий волк.01 серия.2012.SATRip-AVC
:
Тип потока: Видео
Длительность: 00:42:21
Кодек: AVC
Кодек/описание: Advanced Video Codec
Кодек/профиль: High@L3.1
Кодек/ID: V_MPEG4/ISO/AVC
Кодек/CABAC: Yes
Кодек/ReFrames: 12 frames
Размеры изображения: 768 x 432 (16:9)
Частота кадров: 25.000 fps
Частота кадров/тип: Constant
Размер потока: 488 MiB (88%)
Битрейт: 1 646 Kbps
Библиотека кодирования: x264 core 125 r2208 d9d2288
Цветовое пространство: YUV
Тип развёртки: Progressive
Колориметрия: 4:2:0
Глубина: 8 bits
Настройки кодирования: cabac=1 / ref=12 / deblock=1:-3:-3 / analyse=0x3:0x113 / me=umh / subme=9 / psy=1 / psy_rd=1.00:0.20 / mixed_ref=1 / me_range=32 / chroma_me=1 / trellis=2 / 8x8dct=1 / cqm=0 / deadzone=21,11 / fast_pskip=1 / chroma_qp_offset=-3 / threads=6 / lookahead_threads=1 / sliced_threads=0 / nr=0 / decimate=0 / interlaced=0 / bluray_compat=0 / constrained_intra=0 / bframes=10 / b_pyramid=2 / b_adapt=2 / b_bias=0 / direct=3 / weightb=1 / open_gop=0 / weightp=2 / keyint=250 / keyint_min=25 / scenecut=40 / intra_refresh=0 / rc=2pass / mbtree=0 / bitrate=1646 / ratetol=1.0 / qcomp=0.70 / qpmin=0 / qpmax=69 / qpstep=4 / cplxblur=20.0 / qblur=0.5 / ip_ratio=1.40 / pb_ratio=1.30 / aq=1:1.00
:
Тип потока: Звук #1
Длительность: 00:42:21.920
Кодек: AC-3
Кодек/описание: Audio Coding 3
Кодек/ID: A_AC3
Частота дискретизации: 48.0 KHz
Каналов: 2 channels
Битрейт: 192 Kbps
Битрейт/тип: Constant
Размер потока: 58.2 MiB (10%)
Глубина: 16 bits
Метод сжатия: Lossy

pb.wtf



Скачать Одинокий волк через торрент https://pic1.kartinco.top/images/12/dfxax.jpg Скачать фильм Одинокий волк через торрент бесплантно в хорошем качестве Описание: Трудно жить с человеком, у которого чрезвычайно сложный характер, которого никто не может сломать и ущемить, который ни перед кем ... 10 10 3
Торрент: Зарегистрирован [2020-10-13 17:20] · скачан: 26 раз
Статус: √ проверено
Размер: 13.06 GB
Как cкачать? Как скачать Одинокий волк через торрент | qTorrent

% Раздел Тема Автор DL S | L
Наши сериалы [ 25.75 GB ] Балабол / Одинокий волк Саня / Сезон: 4 / Серии: 1-20 из 20 [2020 WEBRip 720p] bober100 Скачать
1 | 0
Наши сериалы [ 15.3 GB ] Балабол / Одинокий волк Саня / Сезон: 4 / Серии: 1-20 из 20 [2020 WEBRip-AVC] bober100 Скачать
1 | 0
Наши сериалы [ 12.58 GB ] Балабол / Одинокий волк Саня / Сезон: 4 / Серии: 1-20 из 20 [2020 WEBRip] bober100 Скачать
1 | 0
Наши сериалы [ 43.08 GB ] Балабол / Одинокий волк Саня / Сезон: 4 / Серии: 1-20 из 20 [2020 WEBRip 1080p] bober100 Скачать
3 | 0
Наши сериалы [ 11.72 GB ] Балабол / Одинокий волк Саня / Сезон: 4 / Серии: 1-20 из 20 [2020 SATRip] bober100 Скачать
3 | 0
Наши сериалы [ 10.06 GB ] Балабол / Одинокий волк Саня / Сезон: 3 / Серии: 1-16 из 16 [2019 WEB-DLRip] bober100 Скачать
1 | 0
Наши сериалы [ 12.24 GB ] Балабол / Одинокий волк Саня / Сезон: 3 / Серии: 1-16 из 16 [2019 WEBRip-AVC] bober100 Скачать
1 | 0

28-11-2019 20:33  

Отключить всю рекламу на сайте

    Дорогой пользователь! Огромная просьба, поблагодарите релизера, оцените раздачу и оставьте свои комментарий, если Вы скачали Одинокий волк через торрент бесплатно! Внесите свою лепту в развитие PiratBit!
    Комментировать посты могут только пользователи прошедшие не сложную регистрацию
    Показать сообщения:    

    Одинокий волк через торрент
    Скачать бесплатно Одинокий волк
    Одинокий волк скачать торрент
    Одинокий волк смотреть онлайн
    Cкачать фильм Одинокий волк бесплатно
    Одинокий волк скачать торрент в хорошем качестве
    Одинокий волк смотреть онлайн бесплатно в хорошем качестве


    Вы не можете начинать темы
    Вы не можете отвечать на сообщения
    Вы не можете редактировать свои сообщения
    Вы не можете удалять свои сообщения
    Вы не можете голосовать в опросах
    Вы не можете прикреплять файлы к сообщениям
    Вы можете скачивать файлы