Ссылка на приватное зеркало нашего сайта всего за 1$. Внимание количество ограничено!!!

2 сезон

iTunes

1 сезон

1

2 сезон

2 сезон

iTunes

1 сезон

RePack

30

Ultimate

ВАЖНО

ИГРА 18+

pack

RePack

MK11
pack

Забери бонус

RePack

jed

!!Акция!!

Alien_Rage

RePack

fifa19

RePack

Assassins Creed: Odyssey

RePack

NEED FOR SPEED™ PAYBACK

4 сезон

9 сезон

Бесстыжие 9 сезон

Все сериалы

все сериалы на PB.wtf

RePack

FAR CRY 5
  

Заложник / Захват / Seized (Айзек Флорентайн) [2020, Боевик, триллер, WEB-DLRip 720p] DUB [iTunes] - ExKinoRay pb.wtf

Заложник через торрент pb.wtf

Раздают: 24 [ 61 KB/s ] Качают: 1 [ 161 KB/s ]
Размер: 2.74 GB | Добавлен: 1 мес. 22 д. назад | Торрент скачан:133 раза
Скачать  

14-10-2020 02:46 Заложник Скачать торрент  

Название: Заложник
Оригинальное название: Seized
Год выпуска: 2020
Жанр: Боевик, триллер
Режиссер: Айзек Флорентайн
В ролях: Скотт Эдкинс, Марио Ван Пиблз, Кэрли Перес, Стивен Элдер, Джеймс П. Беннетт, Маурисио Мендоса, Луис Гатика, Питер Орган, Кристиан Лейва, Мэттью Гарбач

Описание: Бывший агент спецназа оказывается втянут в борьбу преступных синдикатов, против которых он много лет вел войну. Одна из группировок хочет использовать спецагента как оружие и похищает его сына. Теперь, чтобы спасти своего ребенка, он должен уничтожить три опаснейших мафиозных клана.

rating

Страна: США
Студия: Premiere Entertainment Group, Arramis Films, BondIt Media Capital
Продолжительность: 01:25:00
Перевод: Дублированный | iTunes

Формат: MKV
Качество: WEB-DLRip 720p
Видео: MPEG-4 AVC, 1280x692, 3748 Kbit/s, 24.000 fps
Аудио #01: 48 kHz, AC3, 5.1, 384 Kbps | iTunes | RUS |
Аудио #02: 48 kHz, AC3, 5.1, 384 Kbps | Оригинал | ENG |
Субтитры: Русские, английские
General
Unique ID : 216754653120567816247575642641937574881 (0xA3116D7DF1E6515F88FA7C508CBDABE1)
Complete name : F:\Seized.2020.WEB-DL.720p.ExKinoRay.mkv
Format : Matroska
Format version : Version 2
File size : 2.74 GiB
Duration : 1 h 25 min
Overall bit rate : 4 607 kb/s
Movie name : Seized 2020 from ExKinoRay
Encoded date : UTC 2020-10-14 02:00:25
Writing application : mkvmerge v5.6.0 ('Kenya Kane') built on May 27 2012 16:44:04
Writing library : libebml v1.2.3 + libmatroska v1.3.0

Video
ID : 1
Format : AVC
Format/Info : Advanced Video Codec
Format profile : High@L4.1
Format settings, CABAC : Yes
Format settings, ReFrames : 9 frames
Codec ID : V_MPEG4/ISO/AVC
Duration : 1 h 25 min
Bit rate : 3 748 kb/s
Width : 1 280 pixels
Height : 692 pixels
Display aspect ratio : 1.85:1
Frame rate mode : Constant
Frame rate : 24.000 FPS
Color space : YUV
Chroma subsampling : 4:2:0
Bit depth : 8 bits
Scan type : Progressive
Bits/(Pixel*Frame) : 0.176
Stream size : 2.23 GiB (81%)
Title : Enigma
Writing library : x264 core 152 r2851 ba24899
Encoding settings : cabac=1 / ref=9 / deblock=1:-2:-2 / analyse=0x3:0x113 / me=umh / subme=10 / psy=1 / psy_rd=1.03:0.05 / mixed_ref=1 / me_range=32 / chroma_me=1 / trellis=2 / 8x8dct=1 / cqm=0 / deadzone=21,11 / fast_pskip=1 / chroma_qp_offset=-3 / threads=12 / lookahead_threads=2 / sliced_threads=0 / nr=0 / decimate=1 / interlaced=0 / bluray_compat=0 / constrained_intra=0 / bframes=9 / b_pyramid=2 / b_adapt=2 / b_bias=0 / direct=1 / weightb=1 / open_gop=0 / weightp=2 / keyint=240 / keyint_min=24 / scenecut=40 / intra_refresh=0 / rc=crf / mbtree=0 / crf=17.8 / qcomp=0.60 / qpmin=0 / qpmax=51 / qpstep=4 / ip_ratio=1.30 / pb_ratio=1.20 / aq=3:0.80
Language : English
Default : Yes
Forced : No
Color range : Limited
Color primaries : BT.709
Transfer characteristics : BT.709
Matrix coefficients : BT.709

Audio #1
ID : 2
Format : AC-3
Format/Info : Audio Coding 3
Mode extension : CM (complete main)
Format settings, Endianness : Big
Codec ID : A_AC3
Duration : 1 h 25 min
Bit rate mode : Constant
Bit rate : 384 kb/s
Channel(s) : 6 channels
Channel positions : Front: L C R, Side: L R, LFE
Sampling rate : 48.0 kHz
Frame rate : 31.250 FPS (1536 spf)
Compression mode : Lossy
Stream size : 233 MiB (8%)
Title : iTunes
Language : Russian
Default : Yes
Forced : No

Audio #2
ID : 3
Format : AC-3
Format/Info : Audio Coding 3
Mode extension : CM (complete main)
Format settings, Endianness : Big
Codec ID : A_AC3
Duration : 1 h 25 min
Bit rate mode : Constant
Bit rate : 384 kb/s
Channel(s) : 6 channels
Channel positions : Front: L C R, Side: L R, LFE
Sampling rate : 48.0 kHz
Frame rate : 31.250 FPS (1536 spf)
Compression mode : Lossy
Stream size : 233 MiB (8%)
Language : English
Default : No
Forced : No

Text #1
ID : 4
Format : UTF-8
Codec ID : S_TEXT/UTF8
Codec ID/Info : UTF-8 Plain Text
Title : Full
Language : Russian
Default : No
Forced : No

Text #2
ID : 5
Format : UTF-8
Codec ID : S_TEXT/UTF8
Codec ID/Info : UTF-8 Plain Text
Language : English
Default : No
Forced : No

Menu
00:00:00.000 : en:Глава 1
00:06:12.833 : en:Глава 2
00:15:09.166 : en:Глава 3
00:24:02.749 : en:Глава 4
00:33:41.832 : en:Глава 5
00:41:12.040 : en:Глава 6
00:47:46.831 : en:Глава 7
00:56:03.206 : en:Глава 8
01:03:14.706 : en:Глава 9
01:09:51.539 : en:Глава 10
01:16:46.705 : en:Глава 11


Релиз от:

Автор релиза: pb.wtf



Скачать Заложник через торрент https://b.radikal.ru/b01/2010/4a/d368bf402a2e.png Скачать фильм Заложник через торрент бесплантно в хорошем качестве Описание: Бывший агент спецназа оказывается втянут в борьбу преступных синдикатов, против которых он много лет вел войну. Одна из ... 9.8 10 4
Info! Золотая раздача, скачанное не засчитывается.
Торрент: Зарегистрирован [2020-10-14 02:46] · скачан: 133 раз
Статус: √ проверено
Размер: 2.74 GB
Как cкачать? Как скачать Заложник через торрент | qTorrent

28-11-2019 20:33  

Отключить всю рекламу на сайте

    Дорогой пользователь! Огромная просьба, поблагодарите релизера, оцените раздачу и оставьте свои комментарий, если Вы скачали Заложник через торрент бесплатно! Внесите свою лепту в развитие PiratBit!
    Комментировать посты могут только пользователи прошедшие не сложную регистрацию
    Показать сообщения:    

    Заложник через торрент
    Скачать бесплатно Заложник
    Заложник скачать торрент
    Заложник смотреть онлайн
    Cкачать фильм Заложник бесплатно
    Заложник скачать торрент в хорошем качестве
    Заложник смотреть онлайн бесплатно в хорошем качестве


    Вы не можете начинать темы
    Вы не можете отвечать на сообщения
    Вы не можете редактировать свои сообщения
    Вы не можете удалять свои сообщения
    Вы не можете голосовать в опросах
    Вы не можете прикреплять файлы к сообщениям
    Вы можете скачивать файлы