2 сезон

iTunes

MVO

1

2 сезон

iTunes

iTunes

1 сезон

RePack

30

Ultimate

ВАЖНО

ИГРА 18+

pack

RePack

MK11
pack

Легкие деньги

RePack

jed

RePack

fifa19

RePack

RDR2

RePack

NEED FOR SPEED™ PAYBACK

4 сезон

9 сезон

Бесстыжие 9 сезон

Все сериалы

все сериалы на PB.wtf

RePack

FAR CRY 5

Anonymous, добрый день, мы не успеваем собрать деньги на оплату серверов за декабрь и январь, помогите нам пожалуйста в это трудное время. В качестве благодарности мы отключим Вам всю рекламу на сайте (укажите свой ник в строку Ваше имя)!

×
  
Magnet ссылка

Нарцисс и Златоуст / Narziss und Goldmund (Штефан Руцовицки) [2020, драма, BDRip 1080p] MVO [iTunes] pb.wtf

Нарцисс и Златоуст через торрент pb.wtf

Размер: 10.4 GB | Добавлен: 3 мес. 7 д. назад | Торрент скачан:21 раз
Скачать  

14-10-2020 17:30 Нарцисс и Златоуст Скачать торрент  

Нарцисс и Златоуст / Narziss und Goldmund

Год выхода: 2020
Жанр: Драма
Страна: Германия
Продолжительность: 01:58:16
Озвучивание: Профессиональное (многоголосое) | iTunes
Субтитры: German

Режиссер: Штефан Руцовицки

В ролях: Яннис Нивёнер, Сабин Тамбреа, Генриетта Конфуриус, Лукаш Бех, Роксана Дюран, Георг Фридрих, Самуэль Жирарди, Михаэль Гланшних, Маттиас Хабих, Андре Хеннике

О фильме: Позднее Средневековье. История двух гениальных друзей-послушников из уединенного германского монастыря, идущих к духовному просветлению и совершенству в искусстве различными путями.

rating

Качество: BDRip 1080p
Формат: MKV
Видео: MPEG-4 AVC, 11.5 Kb/s, 1920x804, 23.976 FPS
Аудио #1: Russian: 48 kHz, AC3 Dolby Digital, 3/2 (L, C, R, l, r) + LFE ch, ~384 Kbps | iTunes
Аудио #2: German: 48 kHz, AC3 Dolby Digital, 3/2 (L, C, R, l, r) + LFE ch, ~640 Kbps | Original
Дополнительно: Сохранены оригинальные чаптеры, как на Blu-Ray.
Complete name: Narziss.und.Goldmund.2020.BDRip.1080p.ELEKTRI4KA.UNIONGANG.mkv
Format: Matroska
Format version: Version 4 / Version 2
File size: 10.4 GiB
Duration: 1 h 58 min
Overall bit rate: 12.6 Mb/s
Movie name: .ELEKTRI4KA.UNIONGANG.
Encoded date: UTC 2020-10-14 11:20:22
Writing application: mkvmerge v8.3.0 ('Over the Horizon') 64bit
Writing library: libebml v1.3.1 + libmatroska v1.4.2

Video
ID: 1
Format: AVC
Format/Info: Advanced Video Codec
Format profile: High@L4.1
Format settings, CABAC: Yes
Format settings, Reference frames: 5 frames
Codec ID: V_MPEG4/ISO/AVC
Duration: 1 h 58 min
Bit rate: 11.5 Mb/s
Width: 1 920 pixels
Height: 804 pixels
Display aspect ratio: 2.40:1
Frame rate mode: Constant
Frame rate: 23.976 (24000/1001) FPS
Color space: YUV
Chroma subsampling: 4:2:0
Bit depth: 8 bits
Scan type: Progressive
Bits/(Pixel*Frame): 0.312
Stream size: 9.54 GiB (92%)
Title: .ELEKTRI4KA.UNIONGANG.
Writing library: x264 core 160 r3000 33f9e14
Encoding settings: cabac=1 / ref=5 / deblock=1:-3:-3 / analyse=0x3:0x113 / me=umh / subme=10 / psy=1 / psy_rd=1.05:0.00 / mixed_ref=1 / me_range=32 / chroma_me=1 / trellis=2 / 8x8dct=1 / cqm=0 / deadzone=21, 11 / fast_pskip=0 / chroma_qp_offset=-2 / threads=12 / lookahead_threads=2 / sliced_threads=0 / nr=0 / decimate=0 / interlaced=0 / bluray_compat=0 / constrained_intra=0 / bframes=9 / b_pyramid=2 / b_adapt=2 / b_bias=0 / direct=3 / weightb=1 / open_gop=0 / weightp=2 / keyint=240 / keyint_min=23 / scenecut=40 / intra_refresh=0 / rc_lookahead=50 / rc=2pass / mbtree=0 / bitrate=11549 / ratetol=1.0 / qcomp=0.65 / qpmin=0 / qpmax=69 / qpstep=4 / cplxblur=20.0 / qblur=0.5 / vbv_maxrate=50000 / vbv_bufsize=62500 / nal_hrd=none / filler=0 / ip_ratio=1.30 / pb_ratio=1.20 / aq=1:0.80
Default: Yes
Forced: No
Color range: Limited
Color primaries: BT.709
Transfer characteristics: BT.709
Matrix coefficients: BT.709

Audio #1
ID: 2
Format: AC-3
Format/Info: Audio Coding 3
Mode extension: CM (complete main)
Format settings, Endianness: Big
Codec ID: A_AC3
Duration: 1 h 58 min
Bit rate mode: Constant
Bit rate: 384 kb/s
Channel(s): 6 channels
Channel positions: Front: L C R, Side: L R, LFE
Sampling rate: 48.0 kHz
Frame rate: 31.250 FPS (1536 spf)
Bit depth: 16 bits
Compression mode: Lossy
Stream size: 325 MiB (3%)
Title: iTunes
Language: Russian
Default: Yes
Forced: Yes

Audio #2
ID: 3
Format: AC-3
Format/Info: Audio Coding 3
Mode extension: CM (complete main)
Format settings, Endianness: Big
Codec ID: A_AC3
Duration: 1 h 58 min
Bit rate mode: Constant
Bit rate: 640 kb/s
Channel(s): 6 channels
Channel positions: Front: L C R, Side: L R, LFE
Sampling rate: 48.0 kHz
Frame rate: 31.250 FPS (1536 spf)
Bit depth: 16 bits
Compression mode: Lossy
Stream size: 541 MiB (5%)
Title: Original
Language: German
Default: No
Forced: No

Text
ID: 4
Format: PGS
Muxing mode: zlib
Codec ID: S_HDMV/PGS
Codec ID/Info: Picture based subtitle format used on BDs/HD-DVDs
Duration: 1 h 57 min
Bit rate: 19.9 kb/s
Count of elements: 2660
Stream size: 16.7 MiB (0%)
Language: German
Default: Yes
Forced: No

Menu
00:00:00.000: en:00:00:00.000
00:06:25.760: en:00:06:25.760
00:13:53.624: en:00:13:53.624
00:20:02.535: en:00:20:02.535
00:27:50.669: en:00:27:50.669
00:33:01.730: en:00:33:01.730
00:41:12.553: en:00:41:12.553
00:47:23.090: en:00:47:23.090
00:58:00.560: en:00:58:00.560
01:06:43.833: en:01:06:43.833
01:14:07.902: en:01:14:07.902
01:18:57.858: en:01:18:57.858
01:28:05.280: en:01:28:05.280
01:34:22.657: en:01:34:22.657
01:40:05.124: en:01:40:05.124
01:50:28.372: en:01:50:28.372
скриншот  скриншот  скриншот  
pb.wtf



Скачать Нарцисс и Златоуст через торрент https://i2.imageban.ru/out/2020/10/14/64067259f1f058cd77e9e94ed2a405dc.png Скачать фильм Нарцисс и Златоуст через торрент бесплантно в хорошем качестве О фильме: Позднее Средневековье. История двух гениальных друзей-послушников из уединенного германского монастыря, идущих к духовному ... 10 10 1
Торрент: Зарегистрирован [2020-10-14 17:30] · скачан: 21 раз
Статус: √ проверено
Размер: 10.4 GB
Как cкачать? Как скачать Нарцисс и Златоуст через торрент | UTorrent

% Раздел Тема Автор DL S | L
Фильмы 2019-2020 [DVDrip, WEB-DLRip, HDrip] (DUB, MVO) [ 1.44 GB ] Нарцисс и Златоуст / Narziss und Goldmund [2020 HDRip-AVC] [MVO] от MediaBit Lithuania Скачать
1 | 0
Фильмы [HD 720p, 1080p] (Хороший звук DUB, MVO) [ 5.36 GB ] Нарцисс и Златоуст / Narziss und Goldmund [2020 BDRip 720p] MVO bober100 Скачать
1 | 0
Фильмы 2019-2020 [DVDrip, WEB-DLRip, HDrip] (DUB, MVO) [ 2.05 GB ] Нарцисс и Златоуст / Narziss und Goldmund [2020 HDRip] MVO bober100 Скачать
1 | 0
Фильмы 2019-2020 [DVDrip, WEB-DLRip, HDrip] (DUB, MVO) [ 1.47 GB ] Нарцисс и Златоуст / Narziss und Goldmund [2020 HDRip] MVO bober100 Скачать
1 | 0

28-11-2019 20:33  

Отключить всю рекламу на сайте


    Дорогой пользователь! Огромная просьба, поблагодарите релизера, оцените раздачу и оставьте свои комментарий, если Вы скачали Нарцисс и Златоуст через торрент бесплатно! Внесите свою лепту в развитие PiratBit!
    Комментировать посты могут только пользователи прошедшие не сложную регистрацию
    Показать сообщения:    

    Нарцисс и Златоуст через торрент
    Скачать бесплатно Нарцисс и Златоуст
    Нарцисс и Златоуст скачать торрент
    Нарцисс и Златоуст смотреть онлайн
    Cкачать фильм Нарцисс и Златоуст бесплатно
    Нарцисс и Златоуст скачать торрент в хорошем качестве
    Нарцисс и Златоуст смотреть онлайн бесплатно в хорошем качестве


    Вы не можете начинать темы
    Вы не можете отвечать на сообщения
    Вы не можете редактировать свои сообщения
    Вы не можете удалять свои сообщения
    Вы не можете голосовать в опросах
    Вы не можете прикреплять файлы к сообщениям
    Вы можете скачивать файлы