Anonymous, добрый день, присоединяйтесь к нам в Telegram!, здесь всегда актуальный адрес сайта, оперативная поддержка и многое другое!

>

5.5

iTunes

7.4

iTunes

7.9

iTunes

1

7.7

1 сезон

6.8

iTunes

7.3

1 сезон

13

6.7

1 сезон

8.3

RePack

30

ULTIMATE

pack

9.9

Лицензия

ВАЖНО

ИГРА 18+

pack

7.3

RePack

MK11

7.7

RePack

jed

7.8

RePack

fifa19

8.5

RePack

RDR2

RePack

NEED FOR SPEED™ PAYBACK

4 сезон

9 сезон

Бесстыжие 9 сезон

Все сериалы

все сериалы на PB.wtf

RePack

FAR CRY 5

Anonymous, добрый день, мы катастрофически не успеваем собрать деньги на оплату серверов, помогите нам пожалуйста 5,10,15р., для нас важна любая помощь . В качестве благодарности мы отключим Вам всю рекламу на сайте (укажите свой ник в строку Ваше имя)!

×
  
Magnet ссылка

Гусар / Сезон: 1 / Серии: 1-18 из 18 (Заур Болотаев, Рустам Мосафир) [2020, Комедия, приключения, HDTV 1080i] pb.wtf

Гусар через торрент pb.wtf

Раздают: 3 [ 0 KB/s ]
Размер: 17.09 GB | Добавлен: 11 мес. назад | Торрент скачан:301 раз
Смотреть онлайн Гусар | Скачать    Ребята, помогите собрать деньги на оплату серверов!!!

14-10-2020 18:32 Гусар Скачать торрент  

Гусар
Год выпуска: 2020
Страна: Россия
Выпущено: Comedy Club Production по заказу телеканала ТНТ
Жанр: Комедия, приключения
Продолжительность: ~ 00:25:00 серия
Перевод: Не требуется
Субтитры: отсутствуют

Режиссер: Заур Болотаев, Рустам Мосафир



В ролях: Гарик Харламов, Павел Рассомахин, Екатерина Ковальчук, Екатерина Радченко, Сергей Белов, Валерия Кристиансен, Светлана Фролова

Описание: 1812 год. Поручик Григорий Рыльский должен доставить Кутузову секретные документы. Как только они попадут к полководцу, русская армия начнет наступление. Но по пути в штаб поручик заглядывается на сельскую девицу и вдруг… оказывается в будущем – в квартире молодого ученого Дмитрия Журавлева и его жены Кати, которые находятся на грани развода. При попытке вернуть Гусара обратно в прошлое, машина времени ломается, и поручик вынужден оставаться в 21 веке, пока ученый не починит машину.

Качество: HDTV 1080i
Формат: TS

Видео: MPEG-4 AVC, ~ 1920х1080 (16:9), 25 fps, AVC MPEG-4 (x264), High@L4.0 ~ 6300 kbps avg, 0.105 bit/pixel
Аудио: 48 kHz, MPEG Layer 2, 2 ch, ~ 192 kbps avg
скриншот  скриншот  скриншот  скриншот  

Общее
Идентификатор : 1 (0x1)
Полное имя : C:\Gusar.S01.2020.HDTV.(1080i).ExKinoRay\Gusar.S01.E01.2020.HDTV.(1080i).ExKinoRay.ts
Формат : MPEG-TS
Размер файла : 1,03 Гбайт
Продолжительность : 21 м. 25 с.
Режим общего битрейта : Переменный
Общий поток : 6902 Кбит/сек

Видео
Идентификатор : 211 (0xD3)
Идентификатор меню : 2207 (0x89F)
Формат : AVC
Формат/Информация : Advanced Video Codec
Профиль формата : High@L4
Настройки формата : CABAC / 4 Ref Frames
Параметр CABAC формата : Да
Параметр RefFrames формата : 4 кадра
Идентификатор кодека : 27
Продолжительность : 21 м. 25 с.
Битрейт : 6367 Кбит/сек
Ширина : 1920 пикселей
Высота : 1080 пикселей
Соотношение сторон : 16:9
Частота кадров : 25,000 кадров/сек
Стандарт вещания : Component
Цветовое пространство : YUV
Субдискретизация насыщенности : 4:2:0
Битовая глубина : 8 бит
Тип развёртки : Чересстрочная
Метод сохранения типа развёртки : Раздельные поля
Порядок развёртки : Верхнее поле первое
Бит/(Пиксели*Кадры) : 0.123
Размер потока : 976 Мбайт (92%)
Цветовой диапазон : Limited
Основные цвета : BT.709
Характеристики трансфера : BT.709
Коэффициенты матрицы : BT.709

Аудио
Идентификатор : 221 (0xDD)
Идентификатор меню : 2207 (0x89F)
Формат : MPEG Audio
Версия формата : Version 1
Профиль формата : Layer 2
Идентификатор кодека : 3
Продолжительность : 21 м. 25 с.
Вид битрейта : Постоянный
Битрейт : 192 Кбит/сек
Каналы : 2 канала
Частота : 48,0 КГц
Частота кадров : 41,667 кадра/сек (1152 SPF)
Метод сжатия : С потерями
Размер потока : 29,4 Мбайт (3%)
Язык : Russian

Когда раздача ведётся путём добавления новых серий, при каждом добавлении создётся новый торрент. Чтобы начать докачку новой серии, пользователям необходимо сделать следующее:
(1) остановить скачивание,
(2) удалить старый торрент у себя из клиента (старые серии удалять не надо),
(3) скачать новый торрент и запустить его у себя в клиенте вместо старого, при этом указать клиенту путь в старую папку, куда и должно происходить скачивание новых серий.
Ваш клиент при этом должен произвести хеширование (проверку) старой папки (если не производит сам - помогите ему сделать это), и будет докачивать только те серии, которых у вас ещё нет. Старые серии при этом не удаляются, а продолжают раздаваться!
Eсли вы уже удалили старые серии, то предотвратить повторную закачку старых серий можно, отжав галочку в соответсвующих местах при запуске нового торрента. По возможности, желательно не удалять старые серии как можно дольше, чтобы релизёр не столько продолжал раздавать старые серии, а смог сконцентрироваться на новых.

pb.wtf



Скачать Гусар через торрент http://d.radikal.ru/d40/2010/63/1298c206b729.jpg Скачать, смотреть онлайн Гусар бесплантно в хорошем качестве Описание: 1812 год. Поручик Григорий Рыльский должен доставить Кутузову секретные документы. Как только они попадут к полководцу, русская ... 9.3 10 12
Info! Золотая раздача, скачанное не засчитывается.
Торрент: Зарегистрирован [2020-10-29 19:09] · скачан: 301 раз
Статус: √ проверено
Размер: 17.09 GB
Как cкачать? Как скачать Гусар через торрент | UTorrent

% Раздел Тема Автор DL S | L
TNT serials [ 5.31 GB ] Гусар / Сезон: 1 / Серии: 1-18 из 18 [2020 SATRip] bober100 Скачать
1 | 1
TNT serials [ 13.32 GB ] Гусар / Сезон: 1 / Серии: 1-18 из 18 [2020 WEBRip 1080p] bober100 Скачать
4 | 0
TNT serials [ 5.26 GB ] Гусар / Сезон: 1 / Серии: 1-18 из 18 [2020 WEBRip-AVC] bober100 Скачать
7 | 0
TNT serials [ 5.28 GB ] Гусар / Сезон: 1 / Серии: 1-18 из 18 [2020 WEBRip] bober100 Скачать
2 | 0
TNT serials [ 9.06 GB ] Гусар / Сезон: 1 / Серии: 1-18 из 18 [2020 WEBRip 720p] bober100 Скачать
1 | 0

28-11-2019 20:33  

Отключить всю рекламу на сайте

09-11-2020 18:25 Гусар Скачать торрент  

Спасибо дружище. Завтра со сватами приду.pb.wtf



    Дорогой пользователь! Огромная просьба, поблагодарите релизера, оцените раздачу и оставьте свои комментарий, если Вы скачали Гусар через торрент бесплатно!
    Комментировать посты могут только пользователи прошедшие не сложную регистрацию
    Показать сообщения:    

    Гусар через торрент
    Скачать бесплатно Гусар
    Гусар скачать торрент
    Гусар смотреть онлайн
    Cкачать фильм Гусар бесплатно
    Гусар скачать торрент в хорошем качестве
    Гусар смотреть онлайн бесплатно в хорошем качестве


    Вы не можете начинать темы
    Вы не можете отвечать на сообщения
    Вы не можете редактировать свои сообщения
    Вы не можете удалять свои сообщения
    Вы не можете голосовать в опросах
    Вы не можете прикреплять файлы к сообщениям
    Вы можете скачивать файлы