Ссылка на приватное зеркало нашего сайта всего за 1$. Внимание количество ограничено!!!

2 сезон

iTunes

1 сезон

1

2 сезон

2 сезон

iTunes

1 сезон

RePack

30

Новинка

ВАЖНО

ИГРА 18+

pack

RePack

MK11
pack

Забери бонус

RePack

jed

!!Акция!!

Alien_Rage

RePack

fifa19

RePack

Assassins Creed: Odyssey

RePack

NEED FOR SPEED™ PAYBACK

4 сезон

9 сезон

Бесстыжие 9 сезон

Все сериалы

все сериалы на PB.wtf

RePack

FAR CRY 5
  

Девушка с браслетом / La fille au bracelet (Стефан Демустье) [2020, Драма, криминал, BD Remux 1080p] DUB [iTunes] pb.wtf

Девушка с браслетом через торрент pb.wtf

Размер: 25.15 GB | Добавлен: 1 мес. 16 д. назад | Торрент скачан:9 раз
Скачать  

14-10-2020 19:35 Девушка с браслетом Скачать торрент  

Девушка с браслетом | La fille au bracelet
Год выпуска: 2020
Страна: Франция, Бельгия
Студия: Petit Film, France 3 Cinéma, Frakas Productions
Жанр: Драма, криминал
Продолжительность: 01:35:34
Перевод: Дублированный | iTunes
Субтитры: отсутствуют

Режиссер: Стефан Демустье

rating

В ролях: Рошди Зем, Кьяра Мастроянни, Мелисса Герс, Анаис Демустье, Энни Мерсье, Паскаль Гарбарини, Поль Айссауи-Кувелье, Карло Ферранте, Энн Полицевич, Виктория Жадо

Описание: Лизе 18 лет, она живет в самом обычном районе и только что поступила в колледж. Но вот уже два года Лиза носит браслет, потому что ее обвиняют в убийстве лучшей подруги.

Качество: BD Remux 1080p
Формат: MKV

Видео: MPEG-4 AVC, 1920x1080, 34.0 Mbit/s, 23.976 fps
Аудио#1: 48 kHz, AC3, 5.1, 384 Kbps | iTunes | RUS |
Аудио#2: 48 kHz, DTS-HD MA, 5.1, 3452 Kbps | Оригинал | FRE |
скриншот  скриншот  скриншот  скриншот  скриншот  

General
Unique ID : 83239366277180752534633552213240611842 (0x3E9F519D4D9435AF4F2DF2C875768402)
Complete name : D:Video111La.Fille.Au.Bracelet.2019.BDRip.1080p.seleZen.mkv
Format : Matroska
Format version : Version 4
File size : 11.3 GiB
Duration : 1 h 35 min
Overall bit rate : 16.9 Mb/s
Movie name : La Fille Au Bracelet 2019 from селезень
Encoded date : UTC 2020-10-14 18:42:17
Writing application : mkvmerge v40.0.0 ('Old Town Road + Pony') 64-bit
Writing library : libebml v1.3.9 + libmatroska v1.5.2

Video
ID : 1
Format : AVC
Format/Info : Advanced Video Codec
Format profile : High@L4.1
Format settings : CABAC / 4 Ref Frames
Format settings, CABAC : Yes
Format settings, Reference : 4 frames
Codec ID : V_MPEG4/ISO/AVC
Duration : 1 h 35 min
Bit rate : 15.0 Mb/s
Width : 1 800 pixels
Height : 1 080 pixels
Display aspect ratio : 5:3
Frame rate mode : Constant
Frame rate : 23.976 (24000/1001) FPS
Color space : YUV
Chroma subsampling : 4:2:0
Bit depth : 8 bits
Scan type : Progressive
Bits/(Pixel*Frame) : 0.323
Stream size : 10.0 GiB (89%)
Title : iFT
Writing library : x264 core 161 r3015+58M ~ Encoded by Mocunaman in Portugal
Encoding settings : cabac=1 / ref=4 / deblock=1:-3:-3 / analyse=0x3:0x113 / me=umh / subme=11 / psy=1 / fade_compensate=0.00 / psy_rd=1.00:0.00 / mixed_ref=1 / me_range=32 / chroma_me=1 / trellis=2 / 8x8dct=1 / cqm=0 / deadzone=21,11 / fast_pskip=0 / chroma_qp_offset=-2 / threads=34 / lookahead_threads=8 / sliced_threads=0 / nr=0 / decimate=0 / interlaced=0 / bluray_compat=0 / constrained_intra=0 / fgo=0 / bframes=10 / b_pyramid=2 / b_adapt=2 / b_bias=0 / direct=3 / weightb=1 / open_gop=0 / weightp=2 / keyint=250 / keyint_min=23 / scenecut=40 / intra_refresh=0 / rc_lookahead=60 / rc=crf / mbtree=0 / crf=17.9000 / qcomp=0.62 / qpmin=0:0:0 / qpmax=69:69:69 / qpstep=4 / vbv_maxrate=62500 / vbv_bufsize=78125 / crf_max=0.0 / nal_hrd=none / filler=0 / ip_ratio=1.30 / pb_ratio=1.20 / aq=3:0.80 / aq-sensitivity=10.00 / aq-factor=1.00:1.00:1.00 / aq2=0 / aq3=0 / zones=35771,47236,crf=16.9/64852,65766,crf=17.4
Language : English
Default : Yes
Forced : No
Color range : Limited
Color primaries : BT.709
Transfer characteristics : BT.709
Matrix coefficients : BT.709

Audio #1
ID : 2
Format : AC-3
Format/Info : Audio Coding 3
Commercial name : Dolby Digital
Codec ID : A_AC3
Duration : 1 h 35 min
Bit rate mode : Constant
Bit rate : 384 kb/s
Channel(s) : 6 channels
Channel layout : L R C LFE Ls Rs
Sampling rate : 48.0 kHz
Frame rate : 31.250 FPS (1536 SPF)
Compression mode : Lossy
Stream size : 262 MiB (2%)
Title : iTunes
Language : Russian
Service kind : Complete Main
Default : Yes
Forced : Yes

Audio #2
ID : 3
Format : DTS
Format/Info : Digital Theater Systems
Codec ID : A_DTS
Duration : 1 h 35 min
Bit rate mode : Constant
Bit rate : 1 509 kb/s
Channel(s) : 6 channels
Channel layout : C L R Ls Rs LFE
Sampling rate : 48.0 kHz
Frame rate : 93.750 FPS (512 SPF)
Bit depth : 24 bits
Compression mode : Lossy
Stream size : 1.01 GiB (9%)
Title : Original
Language : French
Default : No
Forced : No

Menu
00:00:00.000 : en:Chapter 01
00:08:52.532 : en:Chapter 02
00:15:53.995 : en:Chapter 03
00:24:08.447 : en:Chapter 04
00:32:50.177 : en:Chapter 05
00:40:44.275 : en:Chapter 06
00:51:06.063 : en:Chapter 07
01:01:33.106 : en:Chapter 08
01:10:08.037 : en:Chapter 09
01:20:31.035 : en:Chapter 10
01:30:38.642 : en:Chapter 11

pb.wtf



Скачать Девушка с браслетом через торрент https://i114.fastpic.ru/big/2020/1014/ab/40c681d0394cff75f9d321da899056ab.jpg Скачать фильм Девушка с браслетом через торрент бесплантно в хорошем качестве Описание: Лизе 18 лет, она живет в самом обычном районе и только что поступила в колледж. Но вот уже два года Лиза носит браслет, потому ... 10 10 3
Торрент: Зарегистрирован [2020-10-14 19:35] · скачан: 9 раз
Статус: √ проверено
Размер: 25.15 GB
Как cкачать? Как скачать Девушка с браслетом через торрент | qTorrent

% Раздел Тема Автор DL S | L
Фильмы 2019-2020 [DVDrip, WEB-DLRip, HDrip] (DUB, MVO) [ 745 MB ] Девушка с браслетом / La fille au bracelet [2020 HDRip] bober100 Скачать
1 | 0
Фильмы 2019-2020 [DVDrip, WEB-DLRip, HDrip] (DUB, MVO) [ 2.12 GB ] Девушка с браслетом / La fille au bracelet [2020 BDRip-AVC] bober100 Скачать
2 | 0
Фильмы 2019-2020 [DVDrip, WEB-DLRip, HDrip] (DUB, MVO) [ 1.46 GB ] Девушка с браслетом / La fille au bracelet [2020 BDRip] bober100 Скачать
3 | 0
Фильмы [HD 720p, 1080p] (Хороший звук DUB, MVO) [ 11.31 GB ] Девушка с браслетом / La fille au bracelet [2020 BDRip 1080p] bober100 Скачать
4 | 0
Фильмы [HD 720p, 1080p] (Хороший звук DUB, MVO) [ 5.14 GB ] Девушка с браслетом / La fille au bracelet [2020 BDRip 720p] bober100 Скачать
2 | 0

28-11-2019 20:33  

Отключить всю рекламу на сайте

    Дорогой пользователь! Огромная просьба, поблагодарите релизера, оцените раздачу и оставьте свои комментарий, если Вы скачали Девушка с браслетом через торрент бесплатно! Внесите свою лепту в развитие PiratBit!
    Комментировать посты могут только пользователи прошедшие не сложную регистрацию
    Показать сообщения:    

    Девушка с браслетом через торрент
    Скачать бесплатно Девушка с браслетом
    Девушка с браслетом скачать торрент
    Девушка с браслетом смотреть онлайн
    Cкачать фильм Девушка с браслетом бесплатно
    Девушка с браслетом скачать торрент в хорошем качестве
    Девушка с браслетом смотреть онлайн бесплатно в хорошем качестве


    Вы не можете начинать темы
    Вы не можете отвечать на сообщения
    Вы не можете редактировать свои сообщения
    Вы не можете удалять свои сообщения
    Вы не можете голосовать в опросах
    Вы не можете прикреплять файлы к сообщениям
    Вы можете скачивать файлы