Ссылка на приватное зеркало нашего сайта всего за 1$. Внимание количество ограничено!!!

2 сезон

iTunes

1 сезон

1

iTunes

iTunes

iTunes

1 сезон

RePack

30

ИГРА 18+

pack

ВАЖНО

!!Акция!!

Alien_RageХит недели

RePack

MK11
pack

Забери бонус

RePack

jed

!!Акция!!

Alien_Rage

RePack

fifa19

RePack

Assassins Creed: Odyssey

RePack

NEED FOR SPEED™ PAYBACK

4 сезон

9 сезон

Бесстыжие 9 сезон

Все сериалы

все сериалы на PB.wtf

RePack

FAR CRY 5
  

Сглаз / Evil Eye (Элан Дассани, Раджив Дассани) [2020, ужасы, триллер, детектив, WEB-DL 1080p] 2x[MVO] (IdeaFilm, HDRezka Studio) pb.wtf

Сглаз через торрент pb.wtf

Раздают: 9 [ 0 KB/s ]
Размер: 6.33 GB | Добавлен: 7 д. назад | Торрент скачан:30 раз
Скачать  

15-10-2020 19:31 Сглаз Скачать торрент  

Сглаз / Добро пожаловать в Блумхаус: Сглаз
Evil Eye / Welcome to the Blumhouse:
Evil Eye


Год выпуска: 2020
Страна: США
Жанр: Ужасы, триллер, детектив
Продолжительность: 01:29:17
Перевод 1: Любительский (многоголосый закадровый) IdeaFilm
Перевод 2: Профессиональный (многоголосый закадровый) HDRezka Studio
Субтитры: Русские, английские (forced, full), французские, немецкие, китайские

Режиссер: Элан Дассани, Раджив Дассани / Elan Dassani, Rajeev Dassani

В ролях: Сарита Чоудри, Сунита Мани, Бернард Уайт, Омар Маскати, Анджали Бимани, Лена Кларк, Асад Латиф, Ким Патель, Рамеш Редди

Описание: Идеальный, на первый взгляд, роман превращается в кошмар, когда мать убеждается, что новый парень дочери связан с её собственным прошлым.

rating

Тип релиза: WEB-DL 1080p
Контейнер: MKV
Видео: MPEG-4 AVC, 1080p, 1920:800 (2.40:1), 8676 kbps, 23.976 fps
Аудио 1: АС3, 6 ch, 48 kHz, 384 kbps, 16 bits Русский MVO IdeaFilm
Аудио 2: АС3, 6 ch, 48 kHz, 448 kbps, 16 bits Русский HDRezka Studio
Аудио 3: Е-AC3, 6 ch, 48 kHz, 640 kbps, 16 bits Английский
Формат субтитров: SRT
General
Unique ID : 256602637934789551476235420576232326211 (0xC10BDED3E4B5FF5C7081B8AE98754443)
Complete name : S:\Evil.Eye.2020.AMZN.WEB-DL.1080p.mkv
Format : Matroska
Format version : Version 4
File size : 6.33 GiB
Duration : 1 h 29 min
Overall bit rate : 10.2 Mb/s
Encoded date : UTC 2020-10-16 04:41:23
Writing application : mkvmerge v20.0.0 ('I Am The Sun') 64-bit
Writing library : libebml v1.3.5 + libmatroska v1.4.8

Video
ID : 1
Format : AVC
Format/Info : Advanced Video Codec
Format profile : High@L4
Format settings : CABAC / 4 Ref Frames
Format settings, CABAC : Yes
Format settings, Reference frames : 4 frames
Codec ID : V_MPEG4/ISO/AVC
Duration : 1 h 29 min
Bit rate mode : Constant
Bit rate : 8 676 kb/s
Nominal bit rate : 10 000 kb/s
Width : 1 920 pixels
Height : 800 pixels
Display aspect ratio : 2.40:1
Frame rate mode : Constant
Frame rate : 23.976 (24000/1001) FPS
Color space : YUV
Chroma subsampling : 4:2:0
Bit depth : 8 bits
Scan type : Progressive
Bits/(Pixel*Frame) : 0.236
Stream size : 5.41 GiB (85%)
Language : English
Default : Yes
Forced : No
Color range : Limited
Color primaries : BT.709
Transfer characteristics : BT.709
Matrix coefficients : BT.709

Audio #1
ID : 2
Format : AC-3
Format/Info : Audio Coding 3
Commercial name : Dolby Digital
Codec ID : A_AC3
Duration : 1 h 29 min
Bit rate mode : Constant
Bit rate : 384 kb/s
Channel(s) : 6 channels
Channel layout : L R C LFE Ls Rs
Sampling rate : 48.0 kHz
Frame rate : 31.250 FPS (1536 SPF)
Compression mode : Lossy
Stream size : 245 MiB (4%)
Title : MVO IdeaFilm
Language : Russian
Service kind : Complete Main
Default : Yes
Forced : No

Audio #2
ID : 3
Format : AC-3
Format/Info : Audio Coding 3
Commercial name : Dolby Digital
Codec ID : A_AC3
Duration : 1 h 29 min
Bit rate mode : Constant
Bit rate : 448 kb/s
Channel(s) : 6 channels
Channel layout : L R C LFE Ls Rs
Sampling rate : 48.0 kHz
Frame rate : 31.250 FPS (1536 SPF)
Compression mode : Lossy
Stream size : 286 MiB (4%)
Title : MVO HDRezka Studio
Language : Russian
Service kind : Complete Main
Default : No
Forced : No

Audio #3
ID : 4
Format : E-AC-3
Format/Info : Enhanced AC-3
Commercial name : Dolby Digital Plus
Codec ID : A_EAC3
Duration : 1 h 29 min
Bit rate mode : Constant
Bit rate : 640 kb/s
Channel(s) : 6 channels
Channel layout : L R C LFE Ls Rs
Sampling rate : 48.0 kHz
Frame rate : 31.250 FPS (1536 SPF)
Compression mode : Lossy
Stream size : 409 MiB (6%)
Language : English
Service kind : Complete Main
Default : No
Forced : No

Text #1
ID : 5
Format : UTF-8
Codec ID : S_TEXT/UTF8
Codec ID/Info : UTF-8 Plain Text
Duration : 1 h 22 min
Bit rate : 3 b/s
Count of elements : 42
Stream size : 1.84 KiB (0%)
Title : forced HDRezka
Language : Russian
Default : No
Forced : No

Text #2
ID : 6
Format : UTF-8
Codec ID : S_TEXT/UTF8
Codec ID/Info : UTF-8 Plain Text
Duration : 1 h 22 min
Bit rate : 0 b/s
Count of elements : 20
Stream size : 331 Bytes (0%)
Title : forced English
Language : English
Default : No
Forced : No

Text #3
ID : 7
Format : UTF-8
Codec ID : S_TEXT/UTF8
Codec ID/Info : UTF-8 Plain Text
Duration : 1 h 28 min
Bit rate : 101 b/s
Count of elements : 1313
Stream size : 65.5 KiB (0%)
Language : Russian
Default : No
Forced : No

Text #4
ID : 8
Format : UTF-8
Codec ID : S_TEXT/UTF8
Codec ID/Info : UTF-8 Plain Text
Duration : 1 h 27 min
Bit rate : 66 b/s
Count of elements : 1604
Stream size : 42.4 KiB (0%)
Language : English
Default : No
Forced : No

Text #5
ID : 9
Format : UTF-8
Codec ID : S_TEXT/UTF8
Codec ID/Info : UTF-8 Plain Text
Duration : 1 h 28 min
Bit rate : 74 b/s
Count of elements : 1306
Stream size : 48.3 KiB (0%)
Language : French
Default : No
Forced : No

Text #6
ID : 10
Format : UTF-8
Codec ID : S_TEXT/UTF8
Codec ID/Info : UTF-8 Plain Text
Duration : 1 h 28 min
Bit rate : 71 b/s
Count of elements : 1298
Stream size : 46.0 KiB (0%)
Language : German
Default : No
Forced : No

Text #7
ID : 11
Format : UTF-8
Codec ID : S_TEXT/UTF8
Codec ID/Info : UTF-8 Plain Text
Duration : 1 h 28 min
Bit rate : 59 b/s
Count of elements : 1307
Stream size : 38.5 KiB (0%)
Title : 简体
Language : Chinese
Default : No
Forced : No

Menu
00:00:00.000 : en:Amazon Original
00:00:23.000 : en:Introduction
00:00:58.000 : en:Amazon Original
00:01:07.000 : en:New Orleans, USA
00:03:33.000 : en:Opening Credits
00:05:25.000 : en:A reason of Usha calls
00:07:18.000 : en:Pallavi goes to the place
00:10:30.000 : en:Pallavi gets frustrated
00:11:48.000 : en:Usha doesn't feel good
00:13:22.000 : en:Pallavi talks about Sandeep
00:15:59.000 : en:Pallavi wants to know about him
00:19:01.000 : en:Pallavi introduces him
00:21:49.000 : en:Usha prays
00:23:49.000 : en:Usha worries about Pallavi
00:24:34.000 : en:Sandeep offers lots
00:26:38.000 : en:Usha is at her birthday party
00:28:23.000 : en:Pallavi calls Usha about moving
00:29:50.000 : en:Usha believes in horoscope
00:31:42.000 : en:Pallavi gets upset
00:35:28.000 : en:Krishnan advices Usha
00:38:14.000 : en:Krishnan talks about Usha's old boyfriend
00:42:26.000 : en:Usha talks to Sandeep
00:44:43.000 : en:Krishnan looks for Usha
00:48:30.000 : en:It's karma
00:49:24.000 : en:Usha talks about Sandeep
00:54:29.000 : en:Usha talks about the day
01:01:53.000 : en:Usha is in her room with Krishnan
01:03:26.000 : en:The earings
01:07:31.000 : en:Krishnan worries about Usha
01:08:55.000 : en:Usha meets Sandeep
01:14:15.000 : en:Usha visits Pallavi
01:21:49.000 : en:Everything is discovered
01:24:28.000 : en:Usha wakes up in a hospital
01:28:18.000 : en:End Credits
скриншот  скриншот  скриншот  
pb.wtf



Скачать Сглаз через торрент https://i114.fastpic.ru/big/2020/1014/b4/6dd3654b2eeab0206f534dfaace044b4.jpg Скачать фильм Сглаз через торрент бесплантно в хорошем качестве Описание: Идеальный, на первый взгляд, роман превращается в кошмар, когда мать убеждается, что новый парень дочери связан с её собственным ... 10 10 3
Торрент: Зарегистрирован [2020-10-16 06:55] · скачан: 30 раз
Статус: √ проверено
Размер: 6.33 GB
Как cкачать? Как скачать Сглаз через торрент | qTorrent

% Раздел Тема Автор DL S | L
T Фильмы 2019-2020 [DVDrip, WEB-DLRip, HDrip] (DUB, MVO) [ 1.46 GB ] Сглаз / Добро пожаловать в Блумхаус: Порча / Evil Eye / Welcome to the Blumhouse: Evil Eye [2020 WEB-DLRip] [MVO] killermax2013 Скачать
9 | 0

28-11-2019 20:33  

Отключить всю рекламу на сайте

    Дорогой пользователь! Огромная просьба, поблагодарите релизера, оцените раздачу и оставьте свои комментарий, если Вы скачали Сглаз через торрент бесплатно! Внесите свою лепту в развитие PiratBit!
    Комментировать посты могут только пользователи прошедшие не сложную регистрацию
    Показать сообщения:    

    Сглаз через торрент
    Скачать бесплатно Сглаз
    Сглаз скачать торрент
    Сглаз смотреть онлайн
    Cкачать фильм Сглаз бесплатно
    Сглаз скачать торрент в хорошем качестве
    Сглаз смотреть онлайн бесплатно в хорошем качестве


    Вы не можете начинать темы
    Вы не можете отвечать на сообщения
    Вы не можете редактировать свои сообщения
    Вы не можете удалять свои сообщения
    Вы не можете голосовать в опросах
    Вы не можете прикреплять файлы к сообщениям
    Вы можете скачивать файлы