Ссылка на приватное зеркало нашего сайта всего за 1$. Внимание количество ограничено!!!

2 сезон

iTunes

1 сезон

1

2 сезон

2 сезон

iTunes

1 сезон

RePack

30

Ultimate

ВАЖНО

ИГРА 18+

pack

RePack

MK11
pack

Забери бонус

RePack

jed

!!Акция!!

Alien_Rage

RePack

fifa19

RePack

Assassins Creed: Odyssey

RePack

NEED FOR SPEED™ PAYBACK

4 сезон

9 сезон

Бесстыжие 9 сезон

Все сериалы

все сериалы на PB.wtf

RePack

FAR CRY 5
  

Господин Дьявол / Il signor Diavolo (Пупи Авати) [2019, Ужасы, триллер, детектив, BDRip 1080p] DUB [iTunes] pb.wtf

Господин Дьявол через торрент pb.wtf

Раздают: 1 [ 0 KB/s ]
Размер: 11.15 GB | Добавлен: 1 мес. 19 д. назад | Торрент скачан:55 раз
Скачать  

16-10-2020 03:57 Господин Дьявол Скачать торрент  

Господин Дьявол | Il signor Diavolo
Год выпуска: 2019
Страна: Италия
Студия: Duea Film, Ruggente Film, Rai Cinema
Жанр: Ужасы, триллер, детектив
Продолжительность: 01:30:41
Перевод: Дублированный | iTunes
Субтитры: отсутствуют

Режиссер: Пупи Авати

rating

В ролях: Габриэль Ло Джудиче, Филиппо Франкини, Чезаре Кремонини, Массимо Бонетти, Лино Каполиккьо, Кьяра Казелли, Джанни Кавина, Алессандро Абер, Андреа Ронкато, Ева Антония Гримальди

Описание: Молодой полицейский Фурио Моменте отправляется в регион Венето, чтобы расследовать загадочное и шокирующее преступления: подросток убил одного из своих сверстников, утверждая, что он убил самого дьявола.

Качество: BDRip 1080p
Формат: MKV

Видео: MPEG-4 AVC, 1920x1080, 16.6 Mbit/s, 24.000 fps
Аудио#1: 48 kHz, AC3, 5.1, 384 Kbps | iTunes | RUS |
Аудио#2: 48 kHz, AC3, 5.1, 640 Kbps | Оригинал | ITA |
скриншот  скриншот  скриншот  скриншот  скриншот  

General
Unique ID : 166073608990808785627225039058312380947 (0x7CF09D185955372B84D4B5B6C5D84213)
Complete name : D:Video111Il.signor.Diavolo.2019.BDRip.1080p.seleZen.mkv
Format : Matroska
Format version : Version 4
File size : 11.2 GiB
Duration : 1 h 30 min
Overall bit rate : 17.6 Mb/s
Movie name : Pupi Avati - Il signor Diavolo (2019) from селезень
Encoded date : UTC 2020-10-16 01:32:55
Writing application : mkvmerge v40.0.0 ('Old Town Road + Pony') 64-bit
Writing library : libebml v1.3.9 + libmatroska v1.5.2

Video
ID : 1
Format : AVC
Format/Info : Advanced Video Codec
Format profile : High@L4.1
Format settings : CABAC / 4 Ref Frames
Format settings, CABAC : Yes
Format settings, Reference : 4 frames
Codec ID : V_MPEG4/ISO/AVC
Duration : 1 h 30 min
Bit rate : 16.6 Mb/s
Width : 1 920 pixels
Height : 1 080 pixels
Display aspect ratio : 16:9
Frame rate mode : Constant
Frame rate : 24.000 FPS
Color space : YUV
Chroma subsampling : 4:2:0
Bit depth : 8 bits
Scan type : Progressive
Bits/(Pixel*Frame) : 0.333
Stream size : 10.5 GiB (94%)
Title : -EA
Writing library : x264 core 158 r2984+49 6932f4a t_mod_New [0-bit@all X86_64]
Encoding settings : cabac=1 / ref=4 / deblock=1:-3:-3 / analyse=0x3:0x133 / me=umh / subme=10 / psy=1 / fade_compensate=0.00 / psy_rd=1.03:0.00 / mixed_ref=1 / me_range=32 / chroma_me=1 / trellis=2 / 8x8dct=1 / cqm=0 / deadzone=21, 11 / fast_pskip=0 / chroma_qp_offset=-2 / threads=18 / lookahead_threads=3 / sliced_threads=0 / nr=0 / decimate=0 / interlaced=0 / bluray_compat=0 / constrained_intra=0 / fgo=0 / bframes=8 / b_pyramid=2 / b_adapt=2 / b_bias=0 / direct=3 / weightb=1 / open_gop=0 / weightp=2 / keyint=240 / keyint_min=24 / scenecut=40 / intra_refresh=0 / rc_lookahead=60 / rc=crf / mbtree=0 / crf=15.7500 / qcomp=0.65 / qpmin=0:0:0 / qpmax=69:69:69 / qpstep=4 / vbv_maxrate=62500 / vbv_bufsize=78125 / crf_max=0.0 / nal_hrd=none / filler=0 / ip_ratio=1.40 / pb_ratio=1.30 / aq=3:0.80 / aq-sensitivity=10.00 / aq-factor=1.00:1.00:1.00 / aq2=0 / aq3=0
Language : Italian
Default : Yes
Forced : No
Color range : Limited
Color primaries : BT.709
Transfer characteristics : BT.709
Matrix coefficients : BT.709

Audio #1
ID : 2
Format : AC-3
Format/Info : Audio Coding 3
Commercial name : Dolby Digital
Codec ID : A_AC3
Duration : 1 h 30 min
Bit rate mode : Constant
Bit rate : 384 kb/s
Channel(s) : 6 channels
Channel layout : L R C LFE Ls Rs
Sampling rate : 48.0 kHz
Frame rate : 31.250 FPS (1536 SPF)
Compression mode : Lossy
Stream size : 249 MiB (2%)
Title : iTunes
Language : Russian
Service kind : Complete Main
Default : Yes
Forced : Yes

Audio #2
ID : 3
Format : AC-3
Format/Info : Audio Coding 3
Commercial name : Dolby Digital
Codec ID : A_AC3
Duration : 1 h 30 min
Bit rate mode : Constant
Bit rate : 640 kb/s
Channel(s) : 6 channels
Channel layout : L R C LFE Ls Rs
Sampling rate : 48.0 kHz
Frame rate : 31.250 FPS (1536 SPF)
Compression mode : Lossy
Stream size : 415 MiB (4%)
Title : Original
Language : Italian
Service kind : Complete Main
Default : No
Forced : No

Menu
00:00:00.000 : :Chapter 01
00:09:35.583 : :Chapter 02
00:14:53.042 : :Chapter 03
00:23:39.917 : :Chapter 04
00:28:10.125 : :Chapter 05
00:36:24.833 : :Chapter 06
00:47:31.708 : :Chapter 07
00:53:41.792 : :Chapter 08
00:59:28.542 : :Chapter 09
01:04:56.083 : :Chapter 10
01:12:56.792 : :Chapter 11
01:23:35.542 : :Chapter 12

pb.wtf



Скачать Господин Дьявол через торрент https://i114.fastpic.ru/big/2020/1016/7d/856883731eb5d920eb0cbfbf56ed5a7d.jpg Скачать фильм Господин Дьявол через торрент бесплантно в хорошем качестве Описание: Молодой полицейский Фурио Моменте отправляется в регион Венето, чтобы расследовать загадочное и шокирующее преступления: ... 10 10 7
Торрент: Зарегистрирован [2020-10-16 03:57] · скачан: 55 раз
Статус: √ проверено
Размер: 11.15 GB
Как cкачать? Как скачать Господин Дьявол через торрент | qTorrent

% Раздел Тема Автор DL S | L
Фильмы 2019-2020 [DVDrip, WEB-DLRip, HDrip] (DUB, MVO) [ 1.42 GB ] Господин Дьявол / Il signor Diavolo [2019 BDRip] - Twi7ter Скачать
10 | 0
Фильмы [HD 720p, 1080p] (Хороший звук DUB, MVO) [ 6.03 GB ] Господин Дьявол / Il signor Diavolo [2019 BDRip 720p] bober100 Скачать
2 | 0
Фильмы 2019-2020 [DVDrip, WEB-DLRip, HDrip] (DUB, MVO) [ 745 MB ] Господин Дьявол / Il signor Diavolo [2019 HDRip] bober100 Скачать
1 | 0
Фильмы 2019-2020 [DVDrip, WEB-DLRip, HDrip] (DUB, MVO) [ 1.43 GB ] Господин Дьявол / Il signor Diavolo [2019 HDRip-AVC] от MediaBit Lithuania Скачать
3 | 0
Фильмы 2019-2020 [DVDrip, WEB-DLRip, HDrip] (DUB, MVO) [ 1.46 GB ] Господин Дьявол / Il signor Diavolo [2019 BDRip] bober100 Скачать
7 | 0
Фильмы (Blu-ray, BD-Remux, HDDVD) [ 19.9 GB ] Господин Дьявол / Il signor Diavolo [2019 BD Remux 1080p] bober100 Скачать
1 | 0

28-11-2019 20:33  

Отключить всю рекламу на сайте

    Дорогой пользователь! Огромная просьба, поблагодарите релизера, оцените раздачу и оставьте свои комментарий, если Вы скачали Господин Дьявол через торрент бесплатно! Внесите свою лепту в развитие PiratBit!
    Комментировать посты могут только пользователи прошедшие не сложную регистрацию
    Показать сообщения:    

    Господин Дьявол через торрент
    Скачать бесплатно Господин Дьявол
    Господин Дьявол скачать торрент
    Господин Дьявол смотреть онлайн
    Cкачать фильм Господин Дьявол бесплатно
    Господин Дьявол скачать торрент в хорошем качестве
    Господин Дьявол смотреть онлайн бесплатно в хорошем качестве


    Вы не можете начинать темы
    Вы не можете отвечать на сообщения
    Вы не можете редактировать свои сообщения
    Вы не можете удалять свои сообщения
    Вы не можете голосовать в опросах
    Вы не можете прикреплять файлы к сообщениям
    Вы можете скачивать файлы