Ссылка на приватное зеркало нашего сайта всего за 1$. Внимание количество ограничено!!!

2 сезон

iTunes

1 сезон

1

iTunes

iTunes

iTunes

1 сезон

RePack

30

ИГРА 18+

pack

ВАЖНО

!!Акция!!

Alien_RageХит недели

RePack

MK11
pack

Забери бонус

RePack

jed

!!Акция!!

Alien_Rage

RePack

fifa19

RePack

Assassins Creed: Odyssey

RePack

NEED FOR SPEED™ PAYBACK

4 сезон

9 сезон

Бесстыжие 9 сезон

Все сериалы

все сериалы на PB.wtf

RePack

FAR CRY 5
  

Ради жизни / Серии: 1-4 из 4 (Анна Лобанова) [2020, Мелодрама, WEB-DLRip] pb.wtf

Ради жизни через торрент pb.wtf

Размер: 2.39 GB | Добавлен: 8 д. назад | Торрент скачан:11 раз
Скачать  

16-10-2020 09:05 Ради жизни Скачать торрент  

Ради жизни
Год выпуска: 2020
Страна: Россия
Выпущено: Boomerang Film Company
Жанр: Мелодрама
Продолжительность: ~ 00:47:47
Перевод: Не требуется
Субтитры: отсутствуют

Режиссер: Анна Лобанова

В ролях: Вероника Делион, Антон Вохмин, Максим Радугин, Наталья Чернявская, Анна Данькова, Дмитрий Гарнов

Описание: Сотрудница провинциального агентства недвижимости Алеся Виноградова – очень романтичная девушка. Коллеги подтрунивают, что она завела себе пажа. Друг детства Данила давно и преданно в нее влюблен и каждый день встречает ее после работы. Но Аля мечтает о настоящей любви, чтобы были искры и кругом голова. Однажды в командировку из столицы приезжает респектабельный юрист Константин. Он знакомится с Алесей и сразу же очаровывает ее. Между ними завязывается роман. Через некоторое время Аля понимает, что беременна. Она сообщает об этом Косте. Мужчина счастлив и делает Але предложение, после чего уезжает в столицу, готовиться к свадьбе. В один из очередных приездов Костя везет Алесю в Москву, где в престижной клинике она сдает анализ на наличие редкого генетического заболевания. Константин признается, что его мама была больна и этот синдром может передаваться по наследству. Оба ждут результат анализа с волнением. Он оказывается отрицательным. Алеся счастлива, а Костя сославшись на дела, уезжает и… исчезает из жизни девушки. Прождав несколько месяцев, она отправляется в Москву на поиски возлюбленного, разрушившего ей жизнь. Свою помощь ей предлагает Данила. Сможет ли она найти обманщика и понять, что произошло?

Качество: WEB-DLRip
Формат: AVI

Видео: XviD, ~ 1600 Кбит/с, 720х400, 25 кадр/с
Аудио: 48.0 kHz, AC3 Dolby Digital, 2/0 (L,R) ch, ~ 192 kbps
скриншот  скриншот  скриншот  скриншот  скриншот  

General
Complete name : H:\fiiles x\Ради жизни.2020. WEB-DLRip.Files-x\02. Ради жизни.2020. WEB-DLRip.Files-x .avi
Format : AVI
Format/Info : Audio Video Interleave
File size : 612 MiB
Duration : 47mn 29s
Overall bit rate : 1 802 Kbps
Writing application : VirtualDubMod 1.5.10.3 | www.virtualdub-fr.org || (build 2550/release)
Writing library : VirtualDubMod build 2550/release

Video
ID : 0
Format : MPEG-4 Visual
Format profile : Advanced Simple@L5
Format settings, BVOP : 1
Format settings, QPel : No
Format settings, GMC : No warppoints
Format settings, Matrix : Custom
Codec ID : XVID
Codec ID/Hint : XviD
Duration : 47mn 29s
Bit rate : 1 600 Kbps
Width : 720 pixels
Height : 400 pixels
Display aspect ratio : 16:9
Frame rate : 25.000 fps
Color space : YUV
Chroma subsampling : 4:2:0
Bit depth : 8 bits
Scan type : Progressive
Compression mode : Lossy
Bits/(Pixel*Frame) : 0.222
Stream size : 543 MiB (89%)
Writing library : XviD 73

Audio
ID : 1
Format : AC-3
Format/Info : Audio Coding 3
Mode extension : CM (complete main)
Codec ID : 2000
Duration : 47mn 29s
Bit rate mode : Constant
Bit rate : 192 Kbps
Channel(s) : 2 channels
Channel positions : Front: L R
Sampling rate : 48.0 KHz
Bit depth : 16 bits
Compression mode : Lossy
Stream size : 65.2 MiB (11%)
Alignment : Split accross interleaves
Interleave, duration : 40 ms (1.00 video frame)
Interleave, preload duration : 500 ms

pb.wtf



Скачать Ради жизни через торрент https://i114.fastpic.ru/big/2020/1015/1b/bcd999ce3e820ef54160e4005c31891b.jpg Скачать фильм Ради жизни через торрент бесплантно в хорошем качестве Описание: Сотрудница провинциального агентства недвижимости Алеся Виноградова – очень романтичная девушка. Коллеги подтрунивают, что она ... 10 10 2
Торрент: Зарегистрирован [2020-10-16 09:05] · скачан: 11 раз
Статус: √ проверено
Размер: 2.39 GB
Как cкачать? Как скачать Ради жизни через торрент | qTorrent

% Раздел Тема Автор DL S | L
Наши сериалы [ 4.88 GB ] Ради жизни / Серии: 1-4 из 4 [2020 Мело WEB-DL 1080p] bober100 Скачать
1 | 0
Наши сериалы [ 2.9 GB ] Ради жизни / Серии: 1-4 из 4 [2020 Мело WEB-DL 720p] bober100 Скачать
2 | 0
Наши сериалы [ 2.37 GB ] Ради жизни / Серии: 1-4 из 4 [2020 Мело WEB-DLRip-AVC] bober100 Скачать
1 | 0

28-11-2019 20:33  

Отключить всю рекламу на сайте

    Дорогой пользователь! Огромная просьба, поблагодарите релизера, оцените раздачу и оставьте свои комментарий, если Вы скачали Ради жизни через торрент бесплатно! Внесите свою лепту в развитие PiratBit!
    Комментировать посты могут только пользователи прошедшие не сложную регистрацию
    Показать сообщения:    

    Ради жизни через торрент
    Скачать бесплатно Ради жизни
    Ради жизни скачать торрент
    Ради жизни смотреть онлайн
    Cкачать фильм Ради жизни бесплатно
    Ради жизни скачать торрент в хорошем качестве
    Ради жизни смотреть онлайн бесплатно в хорошем качестве


    Вы не можете начинать темы
    Вы не можете отвечать на сообщения
    Вы не можете редактировать свои сообщения
    Вы не можете удалять свои сообщения
    Вы не можете голосовать в опросах
    Вы не можете прикреплять файлы к сообщениям
    Вы можете скачивать файлы