Ссылка на приватное зеркало нашего сайта всего за 1$. Внимание количество ограничено!!!

2 сезон

iTunes

1 сезон

1

iTunes

iTunes

iTunes

1 сезон

RePack

30

ИГРА 18+

pack

ВАЖНО

!!Акция!!

Alien_RageХит недели

RePack

MK11
pack

Забери бонус

RePack

jed

!!Акция!!

Alien_Rage

RePack

fifa19

RePack

Assassins Creed: Odyssey

RePack

NEED FOR SPEED™ PAYBACK

4 сезон

9 сезон

Бесстыжие 9 сезон

Все сериалы

все сериалы на PB.wtf

RePack

FAR CRY 5
  

Ноктюрн / Добро пожаловать в Блумхаус: Ноктюрн / Nocturne (Зу Квирке) [2020, Триллер, фэнтези, WEB-DL 1080p] 2xMVO [IdeaFilm, HDRezka Studio] pb.wtf

Ноктюрн через торрент pb.wtf

Раздают: 4 [ 265 KB/s ]
Размер: 6.27 GB | Добавлен: 6 д. назад | Торрент скачан:56 раз
Скачать  

16-10-2020 09:12 Ноктюрн Скачать торрент  

Ноктюрн | Добро пожаловать в Блумхаус: Ноктюрн | Nocturne
Год выпуска: 2020
Страна: США
Студия: Blumhouse Productions, Blumhouse Television
Жанр: Триллер, фэнтези
Продолжительность: 01:30:01
Перевод 1: Профессиональный (многоголосый, закадровый) | IdeaFilm
Перевод 2: Профессиональный (многоголосый, закадровый) | HDRezka Studio
Субтитры: Русские (Forced, Full), английские, французские, немецкие, китайские

Режиссер: Зу Квирке

rating

В ролях: Мэдисон Айсмен, Сидни Свини, Жак Колимон, Брэндон Кинер, Джон Ротмен, Родни То, Айвен Шоу, Брайс МакКинни, Азия Джексон, Филлип Уомплер, Джули Бенц, ДжоНелл Кеннеди

Описание: Застенчивая студентка начинает затмевать в музыке свою более образованную и общительную сестру-близнеца, когда обнаруживает загадочную записную книжку, принадлежавшую недавно умершей однокласснице... Но существует легенда, связанная со смертью девушки, которую сложно разгадать.

Качество: WEB-DL 1080p
Формат: MKV

Видео: MPEG-4 AVC, 1920x800 (2.40:1), 8495 kbps, 23.976 fps
Аудио 1 Russian: АС3, 6 ch, 48 kHz, 384 kbps - MVO, IdeaFilm
Аудио 2 Russian: АС3, 6 ch, 48 kHz, 448 kbps - MVO, HDRezka Studio
Аудио 3 English: Е-AC3, 6 ch, 48 kHz, 640 kbps - Original
скриншот  скриншот  скриншот  скриншот  

General
Unique ID : 64022200672414513909947823285854092368 (0x302A3A32D3B0B2AA57D4CBB791E13C50)
Complete name : Nocturne.2020.AMZN.WEB-DL.1080p.mkv
Format : Matroska
Format version : Version 4
File size : 6.27 GiB
Duration : 1 h 30 min
Overall bit rate : 9 970 kb/s
Encoded date : UTC 2020-10-16 08:18:06
Writing application : mkvmerge v20.0.0 ('I Am The Sun') 64-bit
Writing library : libebml v1.3.5 + libmatroska v1.4.8

Video
ID : 1
Format : AVC
Format/Info : Advanced Video Codec
Format profile : High@L4
Format settings : CABAC / 4 Ref Frames
Format settings, CABAC : Yes
Format settings, Reference frames : 4 frames
Codec ID : V_MPEG4/ISO/AVC
Duration : 1 h 30 min
Bit rate mode : Constant
Bit rate : 8 495 kb/s
Nominal bit rate : 10 000 kb/s
Width : 1 920 pixels
Height : 800 pixels
Display aspect ratio : 2.40:1
Frame rate mode : Constant
Frame rate : 23.976 (24000/1001) FPS
Color space : YUV
Chroma subsampling : 4:2:0
Bit depth : 8 bits
Scan type : Progressive
Bits/(Pixel*Frame) : 0.231
Stream size : 5.34 GiB (85%)
Language : English
Default : Yes
Forced : No
Color range : Limited
Color primaries : BT.709
Transfer characteristics : BT.709
Matrix coefficients : BT.709

Audio #1
ID : 2
Format : AC-3
Format/Info : Audio Coding 3
Commercial name : Dolby Digital
Codec ID : A_AC3
Duration : 1 h 30 min
Bit rate mode : Constant
Bit rate : 384 kb/s
Channel(s) : 6 channels
Channel layout : L R C LFE Ls Rs
Sampling rate : 48.0 kHz
Frame rate : 31.250 FPS (1536 SPF)
Compression mode : Lossy
Stream size : 247 MiB (4%)
Title : MVO, IdeaFilm
Language : Russian
Service kind : Complete Main
Default : Yes
Forced : No

Audio #2
ID : 3
Format : AC-3
Format/Info : Audio Coding 3
Commercial name : Dolby Digital
Codec ID : A_AC3
Duration : 1 h 30 min
Bit rate mode : Constant
Bit rate : 448 kb/s
Channel(s) : 6 channels
Channel layout : L R C LFE Ls Rs
Sampling rate : 48.0 kHz
Frame rate : 31.250 FPS (1536 SPF)
Compression mode : Lossy
Stream size : 288 MiB (4%)
Title : MVO, HDRezka Studio
Language : Russian
Service kind : Complete Main
Default : No
Forced : No

Audio #3
ID : 4
Format : E-AC-3
Format/Info : Enhanced AC-3
Commercial name : Dolby Digital Plus
Codec ID : A_EAC3
Duration : 1 h 30 min
Bit rate mode : Constant
Bit rate : 640 kb/s
Channel(s) : 6 channels
Channel layout : L R C LFE Ls Rs
Sampling rate : 48.0 kHz
Frame rate : 31.250 FPS (1536 SPF)
Compression mode : Lossy
Stream size : 412 MiB (6%)
Language : English
Service kind : Complete Main
Default : No
Forced : No

Text #1
ID : 5
Format : UTF-8
Codec ID : S_TEXT/UTF8
Codec ID/Info : UTF-8 Plain Text
Duration : 1 h 20 min
Bit rate : 2 b/s
Count of elements : 30
Stream size : 1.34 KiB (0%)
Title : forced HDRezka
Language : Russian
Default : No
Forced : No

Text #2
ID : 6
Format : UTF-8
Codec ID : S_TEXT/UTF8
Codec ID/Info : UTF-8 Plain Text
Duration : 1 h 27 min
Bit rate : 62 b/s
Count of elements : 760
Stream size : 39.6 KiB (0%)
Language : Russian
Default : No
Forced : No

Text #3
ID : 7
Format : UTF-8
Codec ID : S_TEXT/UTF8
Codec ID/Info : UTF-8 Plain Text
Duration : 1 h 24 min
Bit rate : 41 b/s
Count of elements : 910
Stream size : 25.4 KiB (0%)
Language : English
Default : No
Forced : No

Text #4
ID : 8
Format : UTF-8
Codec ID : S_TEXT/UTF8
Codec ID/Info : UTF-8 Plain Text
Duration : 1 h 25 min
Bit rate : 39 b/s
Count of elements : 750
Stream size : 25.0 KiB (0%)
Language : French
Default : No
Forced : No

Text #5
ID : 9
Format : UTF-8
Codec ID : S_TEXT/UTF8
Codec ID/Info : UTF-8 Plain Text
Duration : 1 h 25 min
Bit rate : 39 b/s
Count of elements : 668
Stream size : 24.8 KiB (0%)
Language : German
Default : No
Forced : No

Text #6
ID : 10
Format : UTF-8
Codec ID : S_TEXT/UTF8
Codec ID/Info : UTF-8 Plain Text
Duration : 1 h 27 min
Bit rate : 35 b/s
Count of elements : 761
Stream size : 22.6 KiB (0%)
Title : 简体
Language : Chinese
Default : No
Forced : No

Menu
00:00:00.000 : en:Amazon Original
00:00:22.000 : en:Studio Logos
00:00:36.000 : en:Playing the violin
00:02:49.000 : en:Opening Credits
00:04:15.000 : en:Spring break
00:06:49.000 : en:Back to school
00:08:43.000 : en:Memorial service
00:09:53.000 : en:Practice
00:10:28.000 : en:Scene 9
00:11:36.000 : en:Sisterly advice
00:13:00.000 : en:Preparing for the showcase
00:15:44.000 : en:Practicing a new piece
00:20:04.000 : en:Showcase auditions
00:24:43.000 : en:A trance
00:28:29.000 : en:Emotions run high
00:30:53.000 : en:Juliet and Roger clash
00:34:58.000 : en:Getting even
00:37:35.000 : en:Music is a blood sport
00:40:11.000 : en:Da Vinci
00:42:02.000 : en:Moira
00:42:45.000 : en:Senior party
00:51:33.000 : en:The next day
00:55:09.000 : en:Juliet confronts Vivian
00:57:04.000 : en:Juliet confides in Max
01:00:15.000 : en:The next step
01:04:20.000 : en:Birthday celebrations
01:08:10.000 : en:Alone with Dr. Cask
01:15:04.000 : en:The final performance
01:29:22.000 : en:End Credits

pb.wtf



Скачать Ноктюрн через торрент https://i2.imageban.ru/out/2020/10/15/f7925872a6d5c167c9a702a2b51f935e.jpg Скачать фильм Ноктюрн через торрент бесплантно в хорошем качестве Описание: Застенчивая студентка начинает затмевать в музыке свою более образованную и общительную сестру-близнеца, когда обнаруживает ... 10 10 4
Торрент: Зарегистрирован [2020-10-16 09:12] · скачан: 56 раз
Статус: √ проверено
Размер: 6.27 GB
Как cкачать? Как скачать Ноктюрн через торрент | qTorrent

28-11-2019 20:33  

Отключить всю рекламу на сайте

    Дорогой пользователь! Огромная просьба, поблагодарите релизера, оцените раздачу и оставьте свои комментарий, если Вы скачали Ноктюрн через торрент бесплатно! Внесите свою лепту в развитие PiratBit!
    Комментировать посты могут только пользователи прошедшие не сложную регистрацию
    Показать сообщения:    

    Ноктюрн через торрент
    Скачать бесплатно Ноктюрн
    Ноктюрн скачать торрент
    Ноктюрн смотреть онлайн
    Cкачать фильм Ноктюрн бесплатно
    Ноктюрн скачать торрент в хорошем качестве
    Ноктюрн смотреть онлайн бесплатно в хорошем качестве


    Вы не можете начинать темы
    Вы не можете отвечать на сообщения
    Вы не можете редактировать свои сообщения
    Вы не можете удалять свои сообщения
    Вы не можете голосовать в опросах
    Вы не можете прикреплять файлы к сообщениям
    Вы можете скачивать файлы