Ссылка на приватное зеркало нашего сайта всего за 1$. Внимание количество ограничено!!!

2 сезон

iTunes

1 сезон

1

iTunes

iTunes

iTunes

1 сезон

RePack

30

ИГРА 18+

pack

ВАЖНО

!!Акция!!

Alien_RageХит недели

RePack

MK11
pack

Забери бонус

RePack

jed

!!Акция!!

Alien_Rage

RePack

fifa19

RePack

Assassins Creed: Odyssey

RePack

NEED FOR SPEED™ PAYBACK

4 сезон

9 сезон

Бесстыжие 9 сезон

Все сериалы

все сериалы на PB.wtf

RePack

FAR CRY 5
  

Конь изабелловой масти / Серии: 1-4 из 4 (Арменак Назикян) [2019, Детектив, HDTV 1080i] pb.wtf

Конь изабелловой масти через торрент pb.wtf

Раздают: 1 [ 888 KB/s ] Качают: 1 [ 0 KB/s ]
Размер: 7.69 GB | Добавлен: 5 д. назад | Торрент скачан:6 раз
Скачать  

17-10-2020 09:24 Конь изабелловой масти Скачать торрент  

Конь изабелловой масти
Год выпуска: 2019
Страна: Россия
Выпущено: Leandra Production Company
Жанр: Детектив
Продолжительность: ~ 00:50:00
Субтитры: отсутствуют

Режиссер: Арменак Назикян

В ролях: Наталья Терехова, Дмитрий Фрид, Никита Зверев, Анастасия Квитко, Сергей Барковский, Дмитрий Новиков (III), Андрей Некрасов (II), Елена Сексте

Описание: Любовная лодка Вари и Сергея Ворониных разбилась о быт: взаимные упреки, непонимание, проблемы с сыном-подростком. В общем, развод. Вполне банальная история, если бы не… В далекой арабской стране похищен баснословно дорогой скакун, победитель многих скачек, да еще обладатель редчайшей масти – изабелловой. На розыски коня брошены силы полиций многих государств, в том числе и России. Волею всемогущего случая развалившаяся семья Ворониных оказывается втянутой в эту «восточную сказку о волшебном коне», оказавшуюся для них не только страшной, смертельно опасной, но и, как ни странно, спасительной.

Качество: HDTV 1080i
Формат: TS

Видео: MPEG-4 AVC, ~ 5400 Кбит/с, 1920x1080, 25 кадр/с
Аудио: Русский (MP2, 2 ch, 192 Кбит/с)
скриншот  скриншот  скриншот  скриншот  

Общее
Идентификатор : 1 (0x1)
Полное имя : C:\Kon.izabellovoj.masti.2019.HDTV.1080i\Kon.izabellovoj.masti.01.2019.HDTV.1080i.ts
Формат : MPEG-TS
Размер файла : 1,92 Гбайт
Продолжительность : 47 м. 16 с.
Режим общего битрейта : Переменный
Общий поток : 5819 Кбит/сек

Видео
Идентификатор : 3321 (0xCF9)
Идентификатор меню : 1553 (0x611)
Формат : AVC
Формат/Информация : Advanced Video Codec
Профиль формата : High@L4.1
Настройки формата : CABAC / 2 Ref Frames
Параметр CABAC формата : Да
Параметр RefFrames формата : 2 кадра
Параметр GOP формата : M=4, N=25
Идентификатор кодека : 27
Продолжительность : 47 м. 16 с.
Вид битрейта : Постоянный
Битрейт : 5400 Кбит/сек
Ширина : 1920 пикселей
Высота : 1080 пикселей
Соотношение сторон : 16:9
Частота кадров : 25,000 кадров/сек
Стандарт вещания : PAL
Цветовое пространство : YUV
Субдискретизация насыщенности : 4:2:0
Битовая глубина : 8 бит
Тип развёртки : Чересстрочная
Метод сохранения типа развёртки : Раздельные поля
Порядок развёртки : Верхнее поле первое
Бит/(Пиксели*Кадры) : 0.104
Размер потока : 1,76 Гбайт (92%)
Цветовой диапазон : Limited
Основные цвета : BT.709
Характеристики трансфера : BT.709
Коэффициенты матрицы : BT.709

Аудио
Идентификатор : 3322 (0xCFA)
Идентификатор меню : 1553 (0x611)
Формат : MPEG Audio
Версия формата : Version 1
Профиль формата : Layer 2
Идентификатор кодека : 3
Продолжительность : 47 м. 16 с.
Вид битрейта : Постоянный
Битрейт : 192 Кбит/сек
Каналы : 2 канала
Частота : 48,0 КГц
Частота кадров : 41,667 кадра/сек (1152 SPF)
Метод сжатия : С потерями
Размер потока : 64,9 Мбайт (3%)
Язык : English

pb.wtf



Скачать Конь изабелловой масти через торрент https://i110.fastpic.ru/big/2019/0413/b5/8dd9ae036c0ddcb111854880e374d4b5.jpg Скачать фильм Конь изабелловой масти через торрент бесплантно в хорошем качестве Описание: Любовная лодка Вари и Сергея Ворониных разбилась о быт: взаимные упреки, непонимание, проблемы с сыном-подростком. В общем, ... 10 10 3
Торрент: Зарегистрирован [2020-10-17 09:24] · скачан: 6 раз
Статус: √ проверено
Размер: 7.69 GB
Как cкачать? Как скачать Конь изабелловой масти через торрент | qTorrent

% Раздел Тема Автор DL S | L
Наши сериалы [ 2.39 GB ] Конь изабелловой масти / Серии: 1-4 из 4 [2019 WEB-DLRip-AVC] bober100 Скачать
2 | 0
Наши сериалы [ 2.4 GB ] Конь изабелловой масти / Серии: 1-4 из 4 [2019 WEB-DLRip] bober100 Скачать
2 | 0
Наши сериалы [ 2.38 GB ] Конь изабелловой масти / Серии: 1-4 из 4 [2019 SATRip-AVC] aleksan55 Скачать
1 | 0
Наши сериалы [ 2.43 GB ] Конь изабелловой масти / Серии: 1-4 из 4 [2019 SATRip] bober100 Скачать
3 | 0

28-11-2019 20:33  

Отключить всю рекламу на сайте

    Дорогой пользователь! Огромная просьба, поблагодарите релизера, оцените раздачу и оставьте свои комментарий, если Вы скачали Конь изабелловой масти через торрент бесплатно! Внесите свою лепту в развитие PiratBit!
    Комментировать посты могут только пользователи прошедшие не сложную регистрацию
    Показать сообщения:    

    Конь изабелловой масти через торрент
    Скачать бесплатно Конь изабелловой масти
    Конь изабелловой масти скачать торрент
    Конь изабелловой масти смотреть онлайн
    Cкачать фильм Конь изабелловой масти бесплатно
    Конь изабелловой масти скачать торрент в хорошем качестве
    Конь изабелловой масти смотреть онлайн бесплатно в хорошем качестве


    Вы не можете начинать темы
    Вы не можете отвечать на сообщения
    Вы не можете редактировать свои сообщения
    Вы не можете удалять свои сообщения
    Вы не можете голосовать в опросах
    Вы не можете прикреплять файлы к сообщениям
    Вы можете скачивать файлы