Ссылка на приватное зеркало нашего сайта всего за 1$. Внимание количество ограничено!!!

2 сезон

iTunes

1 сезон

1

iTunes

iTunes

iTunes

1 сезон

RePack

30

ИГРА 18+

pack

ВАЖНО

!!Акция!!

Alien_RageХит недели

RePack

MK11
pack

Забери бонус

RePack

jed

!!Акция!!

Alien_Rage

RePack

fifa19

RePack

Assassins Creed: Odyssey

RePack

NEED FOR SPEED™ PAYBACK

4 сезон

9 сезон

Бесстыжие 9 сезон

Все сериалы

все сериалы на PB.wtf

RePack

FAR CRY 5
  

Конь изабелловой масти / Серии: 1-4 из 4 (Арменак Назикян) [2019, Детектив, WEB-DLRip] pb.wtf

Конь изабелловой масти через торрент pb.wtf

Раздают: 1 [ 0 KB/s ]
Размер: 2.4 GB | Добавлен: 5 д. назад | Торрент скачан:11 раз
Скачать  

17-10-2020 09:34 Конь изабелловой масти Скачать торрент  

Конь изабелловой масти
Год выпуска: 2019
Страна: Россия
Выпущено: Leandra Production Company
Жанр: Детектив
Продолжительность: ~ 00:50:00
Субтитры: отсутствуют

Режиссер: Арменак Назикян

В ролях: Наталья Терехова, Дмитрий Фрид, Никита Зверев, Анастасия Квитко, Сергей Барковский, Дмитрий Новиков (III), Андрей Некрасов (II), Елена Сексте

Описание: Любовная лодка Вари и Сергея Ворониных разбилась о быт: взаимные упреки, непонимание, проблемы с сыном-подростком. В общем, развод. Вполне банальная история, если бы не… В далекой арабской стране похищен баснословно дорогой скакун, победитель многих скачек, да еще обладатель редчайшей масти – изабелловой. На розыски коня брошены силы полиций многих государств, в том числе и России. Волею всемогущего случая развалившаяся семья Ворониных оказывается втянутой в эту «восточную сказку о волшебном коне», оказавшуюся для них не только страшной, смертельно опасной, но и, как ни странно, спасительной.

Качество: WEB-DLRip
Формат: AVI

Видео: XviD, ~ 1600 Кбит/с, 720x400, 25 кадр/с
Аудио: 48.0 kHz, AC3 Dolby Digital, 2/0 (L,R) ch, ~ 192 kbps
скриншот  скриншот  скриншот  скриншот  

General
Complete name : D:\моё видио\01. Конь изабелловой масти.2019.WEB-DLRip. Files-x.avi
Format : AVI
Format/Info : Audio Video Interleave
File size : 612 MiB
Duration : 47mn 31s
Overall bit rate : 1 801 Kbps
Writing application : VirtualDubMod 1.5.10.3 | www.virtualdub-fr.org || (build 2550/release)
Writing library : VirtualDubMod build 2550/release

Video
ID : 0
Format : MPEG-4 Visual
Format profile : Advanced Simple@L5
Format settings, BVOP : 1
Format settings, QPel : No
Format settings, GMC : No warppoints
Format settings, Matrix : Custom
Codec ID : XVID
Codec ID/Hint : XviD
Duration : 47mn 31s
Bit rate : 1 600 Kbps
Width : 720 pixels
Height : 400 pixels
Display aspect ratio : 16:9
Frame rate : 25.000 fps
Color space : YUV
Chroma subsampling : 4:2:0
Bit depth : 8 bits
Scan type : Progressive
Compression mode : Lossy
Bits/(Pixel*Frame) : 0.222
Stream size : 544 MiB (89%)
Writing library : XviD 73

Audio
ID : 1
Format : AC-3
Format/Info : Audio Coding 3
Mode extension : CM (complete main)
Format settings, Endianness : Big
Codec ID : 2000
Duration : 47mn 31s
Bit rate mode : Constant
Bit rate : 192 Kbps
Channel(s) : 2 channels
Channel positions : Front: L R
Sampling rate : 48.0 KHz
Bit depth : 16 bits
Compression mode : Lossy
Stream size : 65.3 MiB (11%)
Alignment : Split accross interleaves
Interleave, duration : 40 ms (1.00 video frame)
Interleave, preload duration : 500 ms

pb.wtf



Скачать Конь изабелловой масти через торрент https://i110.fastpic.ru/big/2019/0413/b5/8dd9ae036c0ddcb111854880e374d4b5.jpg Скачать фильм Конь изабелловой масти через торрент бесплантно в хорошем качестве Описание: Любовная лодка Вари и Сергея Ворониных разбилась о быт: взаимные упреки, непонимание, проблемы с сыном-подростком. В общем, ... 10 10 3
Торрент: Зарегистрирован [2020-10-17 09:34] · скачан: 11 раз
Статус: √ проверено
Размер: 2.4 GB
Как cкачать? Как скачать Конь изабелловой масти через торрент | qTorrent

% Раздел Тема Автор DL S | L
Наши сериалы [ 2.39 GB ] Конь изабелловой масти / Серии: 1-4 из 4 [2019 WEB-DLRip-AVC] bober100 Скачать
2 | 0
Наши сериалы [ 7.69 GB ] Конь изабелловой масти / Серии: 1-4 из 4 [2019 HDTV 1080i] bober100 Скачать
2 | 1
Наши сериалы [ 2.38 GB ] Конь изабелловой масти / Серии: 1-4 из 4 [2019 SATRip-AVC] aleksan55 Скачать
1 | 0
Наши сериалы [ 2.43 GB ] Конь изабелловой масти / Серии: 1-4 из 4 [2019 SATRip] bober100 Скачать
3 | 0

28-11-2019 20:33  

Отключить всю рекламу на сайте

    Дорогой пользователь! Огромная просьба, поблагодарите релизера, оцените раздачу и оставьте свои комментарий, если Вы скачали Конь изабелловой масти через торрент бесплатно! Внесите свою лепту в развитие PiratBit!
    Комментировать посты могут только пользователи прошедшие не сложную регистрацию
    Показать сообщения:    

    Конь изабелловой масти через торрент
    Скачать бесплатно Конь изабелловой масти
    Конь изабелловой масти скачать торрент
    Конь изабелловой масти смотреть онлайн
    Cкачать фильм Конь изабелловой масти бесплатно
    Конь изабелловой масти скачать торрент в хорошем качестве
    Конь изабелловой масти смотреть онлайн бесплатно в хорошем качестве


    Вы не можете начинать темы
    Вы не можете отвечать на сообщения
    Вы не можете редактировать свои сообщения
    Вы не можете удалять свои сообщения
    Вы не можете голосовать в опросах
    Вы не можете прикреплять файлы к сообщениям
    Вы можете скачивать файлы